<svg xmlns="http://www.w3.org/2000/svg"><defs><font id="DSBroadBrush" horiz-adv-x="1059"><font-face x-height="646" ascent="800" bbox="7.82692 -702 1845 1367" cap-height="1063" descent="-200" font-family="DS BroadBrush" font-weight="400" panose-1="3 9 8 2 4 3 5 8 2 4" underline-position="-225" underline-thickness="50" unicode-range="U+0020-00FF"/><glyph d="M40 0v1367h1042v-1367h-1042zM80 40h962v1287h-962v-1287z" glyph-name=".notdef" horiz-adv-x="1122"/><glyph glyph-name=".null" horiz-adv-x="0"/><glyph glyph-name="nonmarkingreturn" horiz-adv-x="333"/><glyph glyph-name="space" horiz-adv-x="500"/><glyph d="M334 461l382 450q99 117 178 173q15 10 35.5 22.5t37.5 14.5l36 5q11 2 19 -3.5t16.5 -14t18.5 -19t26 -20.5l10 -6q29 -17 62.5 -32t57.5 -36l6 -21q5 -18 13 -41.5t8 -41.5q0 -49 -27 -100l-109 -204q-37 -70 -63 -125.5t-41 -98.5q-14 -39 -14 -62q0 -15 8 -23 q2 16 8 16.5t12.5 -6.5t11.5 -17.5t5 -15.5q0 -11 3 -20t-4 -20l-15 -26q-1 -3 -8.5 -9.5t-7.5 -16.5l-11 -5v-37l-10 -5l-42 -84q-2 -4 -1 -7.5t-4 -8.5l-11 -5q-14 -31 -44.5 -55t-63.5 -24q-16 0 -28 6q-53 -5 -110 30q-62 38 -99 90q-6 3 -9 9.5t-5 14t-3.5 13t-3.5 5.5 q0 9 3.5 28.5t10 38.5t15 33.5t18.5 14.5q-26 8 -52 8q-96 0 -190 -102q-75 -81 -135 -194q-22 -22 -60 -22q-48 0 -94 34q-50 36 -50 83q0 28 16 41l5 21q1 7 12 20.5t24.5 28t27 28l20.5 20.5l16 16q15 15 15 27q0 8 -6 14.5t-14 11.5t-15.5 10.5t-11.5 12.5l-26 47 q-7 13 -7 34q0 9 2.5 28t2.5 28q0 28 23 45t52 17q8 0 28.5 -3t43.5 -7t43.5 -7t28.5 -3q27 0 34 9zM976 879q-7 1 -12.5 1.5t-9.5 0.5q-18 0 -18 -6q0 -14 24 -14q16 0 16 18zM737 487l175 321l-4 19q-12 0 -28.5 -16.5t-22.5 -29.5l-5 -11l-15 -10q-11 -7 -23 -26.5 t-25 -26.5q-10 0 -18 -13t-17 -28.5t-19.5 -28.5t-23.5 -13q0 2 -12.5 -4t-12.5 -27v-8q0 -27 -17 -35l-5 -10q-7 0 -18.5 -2.5t-16.5 -2.5q-7 0 -12 5q0 12 -3 12t-6.5 -7t-6.5 -19t-3 -24q0 -20 11 -20q9 0 12.5 -4t8 -8.5t12 -8.5t23.5 -4q55 0 72 30zM774 604 q-16 0 -21.5 2t-5.5 4q0 4 9.5 8t13.5 3t4 -17z" glyph-name="A" horiz-adv-x="1260" unicode="A"/><glyph d="M989 1110h15q71 0 118 -25q61 -31 61 -94v-18q0 -61 -48 -126q-7 -10 -30.5 -35.5t-63.5 -67.5q-7 2 -12 -4t-9 -12l-94 -63q-6 -4 -19 -10.5t-27 -14t-24.5 -15t-10.5 -13.5q0 -8 18 -9l99 -11l90 -26l11.5 -10.5t19.5 -10.5l16 -37q7 -15 2.5 -21.5t-4.5 -19.5 q0 -4 0.5 -7.5t1.5 -8.5l-11 -6q0 -35 -16 -68l-10 -21l-10 -15l-4.5 -7.5t-9.5 -17.5t-9 -19.5t-4 -13.5l-83 -94q-3 -4 -12 -7.5t-18 -9t-16 -14t-7 -21.5v-21l-10 -6q-5 -23 -27 -23q-6 0 -8 5.5t-3.5 12.5t-4.5 12.5t-9 5.5q-2 0 -4.5 -0.5t-6.5 -1.5q-9 -73 -100 -73 q-13 -8 -32.5 -19t-45.5 -24q-19 -9 -36 -14t-17 11l-2.5 3t-2.5 6q-71 -14 -63 -37q3 -8 0.5 -11.5t-8.5 -5.5l-11 -3q-5 -1 -7 -6h-68q-23 0 -45 1.5t-44 3.5l-52 6l-26 10q-18 7 -34 11t-29 5l-63 5l-16 10q-15 9 -44.5 15.5t-44.5 16.5q-2 25 -3.5 44t-1.5 32 q0 192 129 456q5 10 32.5 63t77.5 148q34 64 59 117.5t42 97.5q17 42 63 73l16 11q13 8 27 8q10 0 23 -5t25 -11t22 -11.5t13 -6.5l26 -16l5 -11q26 -57 67 -57q21 0 44.5 10t47 24t45.5 29.5t40 26.5q88 56 165 56zM617 655q23 14 48 33.5t48.5 41.5t44 45t32.5 42l10 16 q-2 -2 6.5 15.5t18.5 41t19 47.5t9 35t-11 11q-4 0 -10 -3q-129 -107 -197 -230q-23 -43 -23 -72q0 -13 5 -23zM444 356q3 -36 -36 -85l-27 -33q-13 -16 -13 -30q0 -8 8 -19h52q14 0 41.5 5t42.5 5l5 -10q-14 0 -38.5 -2.5t-48.5 -6.5t-42 -10t-18 -13q0 -8 14 -8.5t33 -0.5 q3 0 9 -1.5t9 -1.5q5 0 7 1.5t8 1.5q11 0 26 -4l5 -2q119 59 162 125q5 3 7 12t9 9l36 79q6 13 6 25q0 22 -21 37t-51 24.5t-63.5 14t-58.5 4.5q-6 -27 -27 -60l-18 -28zM334 278q3 -4 1 -14l-2 -10t-3 -10l-7 -21q-4 -9 -4 -19q0 -18 20 -15q0 22 12 41t12 45q0 19 -8 19 q-9 0 -21 -16z" glyph-name="FLW66" horiz-adv-x="1203" unicode="B"/><glyph d="M514 618q-14 -40 -42 -78q-23 -55 -37 -89.5t-19 -48.5q-14 -38 -23.5 -74.5t-14.5 -70.5q-1 -3 -3 -12.5t-4.5 -21t-4.5 -22.5t-2 -17q0 -27 20 -27q15 0 38 14t51 35t60 46.5t65 48.5q20 11 31 11q9 0 10 -7.5t1.5 -15.5t4 -12.5t16.5 1.5l5 10q3 6 8 11t6 21 q2 23 7 23t17.5 -9t24.5 -9l10 -10q13 0 32 -11t19 -23q0 -13 -14 -20t-30 -12t-30 -9.5t-14 -10.5q0 -12 10 -12q3 0 11 3l6 11q1 1 3 -2l2 -3q0 -3 -12 -12l-14 -11q-7 -6 -7 -11q0 -16 8 -16t33 20l33 29q17 14 27 14q6 0 6 -10t-5.5 -32t-5.5 -39q14 -6 20.5 6.5 t11 30.5t10.5 33.5t19 15.5q12 0 11 -7t-7 -16.5t-12.5 -20t-5.5 -16.5q-7 0 -10.5 -7.5t-5 -16t-2.5 -16t-3 -7.5l-5 -11q-34 -12 -44 -12q-21 0 -21 -14q0 -10 7.5 -20t7.5 -8q0 -7 -9 -20.5t-20 -24.5l-5 -11q-4 -9 -25.5 -23.5t-50 -30t-60.5 -30.5t-59 -25l-46 -17 q1 0 9 -4t8 -7t-1 -4l-42 -5q0 13 -7.5 11.5t-17 -8.5t-18 -15t-10.5 -8q-10 0 -14.5 4t-7 9.5t-5.5 9.5t-9 4q-8 0 -20.5 -7.5t-21.5 -7.5q-12 0 -16 13l-10 15q-1 2 -34 35q-14 14 -17.5 35t-9 41.5t-19 36.5t-46.5 20l-42 5q-58 7 -92 80q-30 65 -30 140q0 1 0.5 9 t1.5 23q12 184 152 384q31 44 65.5 84t71.5 77q85 83 145 120l16 10l4.5 2t10.5 4.5t11 5.5t5 4l37 5l26 10h100q22 0 49.5 11.5t56 26t56 26t49.5 11.5q11 0 33.5 -2.5t33.5 -2.5q59 0 109 -38q41 -31 48 -39q22 -23 22 -55q0 5 -2 -16t-7 -56.5t-13 -78t-19.5 -79.5 t-27.5 -62t-37 -25q-7 0 -14.5 -4.5t-28.5 -10.5q-10 -3 -25 -5t-21 2l-11 5l-5 10q-1 1 -4 1h-3q-13 0 -13 -15q0 -3 2 -9l-19 34q4 7 4 15q0 18 -18.5 30t-37.5 14q-15 1 -27.5 -10t-24.5 -11q-15 0 -15 18q0 16 12.5 29t28.5 14l5 21q0 1 -4.5 1.5l-4.5 0.5q-7 0 -21 -12 q-8 -6 -12.5 -6t-9.5 11l-11 5q0 10 1 31t1 31q0 59 -18 59q-58 -62 -110 -130.5t-99 -142.5zM818 676q7 0 7 -2q0 -6 -8 -6q-3 0 -5 3q0 6 3 9.5t3 -4.5zM896 247q-11 0 -12.5 3t1.5 5.5t7 1.5t4 -10zM587 236q-11 -1 -13 -9q-3 -18 5 -16.5t16 11t10.5 20.5t-9.5 11 q-5 -2 -9 -17zM634 121q3 -6 8 -6q4 0 11 6t15 15t15 18t11 15q0 7 -10 7q-20 0 -36 -17.5t-14 -37.5zM744 178q-15 -4 -15 -14q0 -15 24 -15q11 0 14.5 5t3.5 11q0 8 -5 15.5t-10 7.5q-6 0 -12 -10zM551 163q5 -4 11 -4q11 0 11 15q0 12 -9 12q-13 0 -13 -23zM451 105 q5 0 5 2q-2 2 -5 6.5t-7 4.5q-1 0 -1 -1q0 -6 7 -13q1 -1 1 1zM587 89q-10 -1 -10 -7q0 -16 10 -15.5t18 8.5t9.5 17t-14.5 9q-7 0 -13 -12z" glyph-name="FLW67" horiz-adv-x="1143" unicode="C"/><glyph d="M680 -31l-100 -5q-10 -1 -16.5 -1h-9.5h-28q-152 0 -286 28q-156 33 -220 83l4.5 18t6.5 24l10 15q-1 11 7.5 34t13.5 55q41 85 93 224q77 210 84 228q103 261 247 381l92 22l133 -22l75 52l135 -10l76 -28l18 -30l10 -5q8 -4 19 -16t23 -15q75 -75 84 -236 q-15 -138 -39 -257q-4 -21 -9 -39t-10 -34q0 13 -3 2t-8 -29t-11.5 -35t-13.5 -17h-26q-1 0 -9 4t-12 4q-5 0 -11 -8t-6 -13q0 -13 15 -13q12 0 17 11q0 -10 -8 -22t-19.5 -22t-24 -17t-22.5 -7q-9 0 -10 4t0.5 10.5t4.5 16.5t3 22q0 4 -2 10l15 15q3 3 4.5 9.5t6.5 11.5 q-5 6 -9 6q-8 0 -16.5 -12t-18.5 -30.5t-20 -41t-20 -42.5l11 -5q-9 -7 -9 -12q0 -4 11.5 -11.5t25 -16t25 -17.5t11.5 -15q0 -17 -110 -107q-118 -96 -174 -99zM617 849q5 -3 9 -3q7 0 7 11q-1 18 -10 18q-6 0 -6 -26zM855 912q-17 0 -17 -5q0 -16 17 -11q2 0 2 5 q0 2 -0.5 4.5t-1.5 6.5zM879 887q-12 0 -15.5 -3t-2.5 -7t5.5 -7t7.5 -3q7 0 7 9q0 2 -0.5 4.5t-1.5 6.5zM439 241l209 -36q10 -2 23 2t25 8.5t20 5.5t8 -6v-10.5t8 -7.5q1 0 5 2l6 11q4 10 42 10q0 -6 8 -3t17 7t17 6t8 -5q0 -5 7 -9.5t10 -4.5q13 0 13 15q0 4 -7 9t-16 10 t-16.5 8.5t-9.5 3.5q-11 0 -25.5 -8t-16.5 -8q-4 0 -4 4q0 3 8 21t17.5 39t17.5 39.5t8 22.5q0 28 -15 28t-15 -24q0 -50 -43 -77q-7 10 -7 24q0 13 6 35.5t6 34.5l16 16l-1 3.5t-1 2.5q0 2 3.5 4t3.5 5q0 15 6.5 43.5t14.5 59.5t14.5 59.5t6.5 42.5v36l10 26q6 16 6 45 q0 40 -11 65l-5 11q-10 0 -15.5 6.5t-10.5 8.5l-68 32q-19 9 -34.5 -7.5t-28.5 -42.5t-24 -52.5t-20 -38.5l2 -6l-31 -78q-3 -6 -8.5 -23.5t-13.5 -37t-18.5 -38t-22.5 -27.5q-4 -4 -7.5 -16t-7.5 -26.5t-7.5 -29.5t-6.5 -26q-3 -9 -13.5 -21t-22 -28.5t-20.5 -37t-9 -46.5 q0 -28 10 -31zM934 792q-24 0 -24 -6q0 -1 22 -19q2 2 2 25zM812 846q36 -24 54 -24q7 0 7 4q0 9 -16 15.5t-27 6.5q-4 0 -8.5 -0.5t-9.5 -1.5zM601 817q-14 0 -11.5 -5t10 -7.5t14 1.5t0.5 22q-4 14 -13 -11zM575 807q-4 0 -4 -1q0 -2 1.5 -1.5t2.5 2.5zM554 681q1 -7 7 -7 q4 0 9 6.5t5 11.5q10 5 -8 5q-15 -1 -15 -10zM439 367q5 0 5 2q0 5 -5 10.5t-10 5.5q-3 0 -3 -1q-4 -6 9 -15q4 -4 4 -2zM1057 349v-8q-7 0 -4 2.5t4 5.5zM837 325q-13 -10 -13 -22q0 -9 4.5 -9t9.5 4.5t9.5 12.5t4.5 15q0 17 -15 -1zM826 267q8 3 8 6q0 7 -11 7 q-5 0 -5.5 -2.5t1.5 -5.5t4.5 -5t2.5 0z" glyph-name="FLW68" horiz-adv-x="1171" unicode="D"/><glyph d="M994 880l-120 -5q-14 -1 -40 -14.5t-48 -13.5q-33 0 -33 44q-25 0 -25 -8q0 -2 1.5 -6.5t1.5 -6.5q0 -7 -20 -7q-57 0 -88 -67q-24 -52 -24 -116q0 -23 12.5 -27t41.5 -4h26q42 0 53 11l11 11q3 3 4.5 -1t1.5 -5q-1 -4 -1 -10l10 -11l-0.5 -3.5t-0.5 -2.5q0 -5 7.5 -8.5 t9.5 -5.5q16 0 21 5q3 13 17 8.5t22 -4.5q5 0 8 1l5 21q2 10 7 3q4 -7 3.5 -9.5t-3 -4.5t-5.5 -4t-3 -7q0 -9 3.5 -29.5t3.5 -32.5q-13 -6 -12 -12t9 -10.5t19.5 -5.5t19.5 2q-21 -83 -135 -119q-36 -11 -96 -20t-137 -9q-24 0 -34.5 -16.5t-16.5 -38.5t-13 -44.5t-23 -35.5 q0 -22 -32 -60q-6 -8 -6 -10q0 1 14.5 -4.5t32.5 -12.5t35 -13t22 -6q6 0 14.5 4.5t8.5 12.5q0 6 -4 8t-8.5 3t-8.5 1t-4 2t10 7.5t10 10.5l42 -21l20 10q18 8 26 8q3 0 -1 -6.5t-10 -14.5t-11.5 -15t-5.5 -8q0 -13 34 -16q7 3 10.5 16.5t5.5 14.5q11 -38 38 -38 q11 0 25.5 12.5t35.5 12.5q12 0 20.5 -9.5t12.5 -9.5t4 22q14 -6 14 -17q0 -13 -16 -24.5t-30 -11.5q-10 -22 -20.5 -46t-31.5 -32l6 23q-2 -7 -26.5 -21.5t-58.5 -33.5l-104 -57h-236l-63 -16q-12 -3 -30 -3q-56 0 -95 43q-27 29 -40 73.5t-13 85.5q0 21 3 49.5t3 65.5 q2 0 10.5 26.5t17.5 58.5t16.5 59t7.5 29l10 11l11 26q5 11 5.5 16t4.5 5l210 434q4 8 5 12.5t1 0.5q0 2 -1 3l16 16q11 20 35.5 46.5t52.5 52t55 46.5t43 30q22 13 34 13l256 26q58 6 65 6q23 0 29 -6q23 -4 51.5 -5.5t53.5 -6.5t42 -17.5t17 -40.5q0 -4 -0.5 -9t-1.5 -10 q1 -3 7 -19.5t13.5 -36.5t7.5 -21v-8t-1 -9l10 -5q1 -1 1.5 -6.5t0.5 -6.5q0 -5 -12 -29l-11 -16q-11 5 -16.5 1.5t-9.5 -9.5t-7 -11.5t-10 -5.5q-6 0 -14 4t-19 4q-12 0 -18 -9zM826 681q7 -10 6 -12.5t-6.5 -2t-12.5 2.5t-13 2q-13 -7 -21 -7q-5 0 -5 3q0 6 12 13t20 7 q10 0 20 -6zM800 618q-5 0 -5 -1t1.5 -1.5t3.5 2.5zM790 540q-20 -9 -20 -14q0 -6 28 -5q16 1 27 4.5t11 8.5q0 8 -19 15q-8 1 -15 0.5t-12 -9.5zM706 529q-13 4 -14 -9q-2 -5 9.5 -5h21.5q22 0 22 14q0 11 -13 11q-12 0 -26 -11zM275 334q-17 0 -17 -13q0 -19 13 -19 q5 0 6 7q1 6 -2 25zM533 158q-11 2 -12.5 -1.5t1.5 -6.5t7 -2t4 10zM492 131q6 5 6 8q0 10 -18 10q-6 0 -4.5 -4.5t6 -9t8 -7.5t0.5 0q2 0 2 3zM575 131q5 0 5 2q-1 5 -6 8t-9 3q-3 0 -3 -1q-2 -4 3.5 -9t8.5 -5q1 0 1 2zM502 110q9 -4 16 -2t9.5 6.5t0.5 10t-10 6.5 q-18 0 -18 -15q0 -2 2 -6zM711 105q-7 2 -8 -2.5t6 -4.5q2 0 2 7z" glyph-name="FLW69" horiz-adv-x="1131" unicode="E"/><glyph d="M826 1126h194q36 0 36 -31q0 -12 -7 -30t-17 -38.5t-21.5 -41t-21.5 -37.5q-4 -26 -21.5 -47t-43.5 -36t-55.5 -23.5t-57.5 -8.5h-178q-7 9 -13 9q-8 0 -14 -11.5t-10 -26.5t-5 -29.5t0 -20.5l-11 -15q-15 -19 -15 -35q0 -23 26 -23h99q-4 0 14.5 2t46.5 4.5t60.5 4.5 t56.5 2q54 0 54 -17q0 -5 -4 -9l-10 -10q-14 -14 -14 -29l-31 -16q-1 -1 -4 -11t4 -10l-16 -31q-11 -22 -11 -41v-8.5t1 -11.5v-21q0 -21 -14 -39t-35 -30.5t-46 -19.5t-47 -7h-162q-19 0 -33 -11.5t-24 -29.5t-17 -40t-13 -44q-5 -20 -16.5 -37.5t-11.5 -26.5l-16 -16 l-8.5 -14t-19 -30t-19 -28t-8.5 -8q-1 -8 3 -24q-4 0 -11.5 -3t-15 -8t-12.5 -10.5t-3 -10.5l-16 -10l-10 -16q-3 -4 -14 -10.5t-23 -13.5t-21.5 -14.5t-9.5 -13.5q-6 0 -13.5 -4t-12.5 -4t-11 3l-15 -11l-3 0.5t-4 0.5q-7 0 -21 -9.5t-28 -9.5q-68 0 -86 70q0 58 11 116 t31 120q16 50 39.5 124t56.5 173q40 120 79 212.5t74 157.5q99 181 186 181l318 51z" glyph-name="FLW70" horiz-adv-x="1076" unicode="F"/><glyph d="M970 691l-210 52q-7 15 -7 39q0 -2 2 16.5t5 39t5 34.5t2 4q0 6 -5.5 17t-5.5 21q0 1 -1.5 3t-1.5 5q0 1 2 5l10 26q5 15 1 25q-3 10 -10 -3t-15 -33.5t-15 -41.5t-11 -27q-6 -8 -19.5 -14.5t-13.5 -15.5q-3 -3 -10.5 -4l-15 -2t-13.5 -2.5t-6 -4.5q0 -6 3.5 -14t7 -14.5 t7 -11l3.5 -4.5q0 -7 -13 -16q-17 0 -13.5 8t3.5 18l-11 10q0 -10 -9 -15t-12 -11q0 -9 5 -27t5 -29q0 -18 -11 -31t-29 -13q-8 0 -22.5 2.5t-21.5 2.5q-15 0 -15 -15l-10 -10q4 -10 -3.5 -25t-7.5 -30q0 -13 3 -22.5t-3 -17.5l-10 -15q-5 -5 -6 -22q-3 -18 1 -25l-42 5 l-5 -11q-21 -11 -21 -19q0 -4 4.5 -9t10.5 -9t11 -7l5 -3q5 -21 -4 -34t-21 -22t-22.5 -16t-10.5 -16q0 -7 3 -21.5t3 -21.5l2 2q2 -2 2 -4q0 -3 -2 -5q3 -3 -3 -19t-5 -21l11 -5q9 -5 5 -16l-10 -5q-16 -8 -27 -32q19 -14 23.5 -32t6 -34t5 -27t21.5 -11q14 0 28 10l89 58 l5 10l74 58l5 10l68 63q-2 3 5 9t16 13t16.5 14t7.5 13q0 24 -56 19l-68 -5q-18 14 -18 39q0 50 80 91q15 8 17 17q125 31 185 31q77 0 126 -37q6 -5 19.5 -18t27 -29.5t23.5 -34t10 -30.5q0 -3 -4.5 -17.5t-4.5 -27.5l-26 -73l-8 -8q-8 -10 -24 -18.5t-16 -28.5 q0 -5 4 -9.5t4 -9.5q0 -6 -10 -6q-15 -1 -23 7q-11 -5 -11 -47q1 1 2 1q2 0 2 -4t-2 -4q-1 0 -2 1l-5 -10q-29 0 -29 -18q0 -15 7 -31.5t-2 -25.5l-5 -5q-5 -5 -3.5 -6t-7.5 -1q-4 0 -16.5 -14t-28 -31t-31 -31t-24.5 -14t-17 4l-5 -10q-5 -11 -7 -9q-4 3 -4 21v10 q0 16 -4.5 15t-11.5 -9t-16.5 -18.5t-19.5 -14.5q-6 -3 -18 -6.5t-23.5 -7.5t-20 -8.5t-8.5 -8.5l2 -6l-11 -6q5 3 -11 6.5t-25 3.5q-6 0 -14 -3.5t-16 -6t-13.5 -1.5t-5.5 11t9 20t16.5 18t8.5 13t-16 5q-1 0 -6 3l-16 -16q-1 -1 -3 -1t-5 1.5t-4 1.5q-3 0 -3 -7l-21 -6 q-18 -5 -36 -12t-36 -13q-43 -15 -75 -15q-35 0 -57 19q-7 18 -34.5 46.5t-76.5 64.5q-20 15 -56.5 38.5t-73.5 60.5l-16 16q-1 1 -3.5 9t-6.5 17l-16 52q-18 59 -18 119q0 162 122 332q100 140 270 264q72 53 139.5 90t130.5 59q8 0 22 -6t30 -13t31.5 -13t25.5 -6 q27 0 53 17q103 7 168 -70q11 -13 24.5 -34.5t25.5 -48t20.5 -55.5t8.5 -57q0 -49 -39 -86q-11 -11 -32 -23.5t-50 -28.5zM362 393q-16 -4 -16 -25q0 -8 7 -11q5 -4 20 4q3 1 5 12q0 7 -0.5 14t-2.5 11.5t-5.5 4t-7.5 -9.5zM394 105v15q-3 1 -6 1q-5 0 -2 -4q2 -4 4 -7t4 -5 z" glyph-name="FLW71" horiz-adv-x="1111" unicode="G"/><glyph d="M443 296q-40 -128 -75 -188q-58 -97 -134 -90q0 -2 -13.5 -8.5t-18.5 -6.5q4 3 3 4t-3 0l-5 -2q-3 -1 -2 -2l-19 5q-5 -5 -11.5 -4t-12.5 4.5l-12 7t-10 3.5q-2 0 -6.5 -3.5t-6.5 -3.5q-5 0 -8.5 -4t-9.5 -4q-14 0 -27.5 12t-24.5 29t-18 34t-7 28q0 7 2.5 25.5t7 38.5 t9.5 38t10 24q0 36 13.5 83.5t23.5 87.5q3 11 -6.5 21t-22 20t-23.5 20.5t-11 22.5q0 9 9 20t32 23l37 20q15 8 29 29t25.5 46t21.5 49.5t18 39.5l136 262q8 15 27.5 31t42.5 29t47 21t42 8q13 0 31.5 -10t36 -25t29.5 -33t12 -35q0 -2 -1.5 -2t-1.5 -1q0 2 21 -28 q27 -42 27 -88q0 -48 -30 -108q3 -27 -16 -64l-15 -27q-7 -13 -7 -24q0 -27 59 -27h73q37 35 37 58l15 16q52 55 82 146q41 126 54 149q39 68 121 92q105 -17 131 -73q9 0 7 -6t-2 -10l10 -10q16 -16 16 -51q0 -29 -10.5 -72t-32.5 -97q-9 -22 -23 -55t-33 -76 q-4 -11 -26 -70.5t-62 -166.5q-52 -144 -96 -234l-10 -6q-28 -19 -46.5 -67t-42.5 -105q-4 -4 -6 -16t-11 -12q-6 0 -7.5 5t-0.5 12t3 14t2 12q0 23 -6 23q-3 0 -9.5 -11.5t-15.5 -27.5t-18 -33t-16 -28q-9 -15 -17 -24t-16.5 -16.5t-18 -14.5t-21.5 -17l-9 -8l-6 -10 q-92 6 -92 119q0 111 40 190q-2 15 3 37t12 44.5t12.5 43t5.5 32.5q0 20 -20.5 24.5t-45.5 4.5h-32q-30 0 -66 -3z" glyph-name="FLW72" horiz-adv-x="1199" unicode="H"/><glyph d="M561 850q3 -84 -30 -190q-15 -46 -31.5 -91t-32.5 -91q-35 -184 -141 -372q-9 -3 -16 -11t-15.5 -16.5t-18.5 -15.5t-23 -7q0 -17 -16.5 -36t-35.5 -19q-10 0 -22.5 14t-23.5 14q-10 0 -18 -11t-16 -11l-36 31q-7 5 1 32q-10 0 -21 6.5t-20 16t-15 20.5t-6 20q0 7 1.5 17 t1.5 24q0 13 5.5 17.5t11 8.5t9.5 9.5t1 19.5l-6 25q-3 12 -3 22q0 22 7.5 41.5t7.5 39.5q0 8 -1 11l34 35q13 13 13 35q0 7 -2 22t-2 22q0 16 7.5 28.5t23.5 31.5l15 17q7 7 9 14q9 86 51 197q46 123 102 201q68 92 126 92q87 0 125 -213z" glyph-name="FLW73" horiz-adv-x="581" unicode="I"/><glyph d="M39 -327l-19 12l173 152q41 36 84 106t80 173q19 53 46.5 134.5t67.5 188.5q26 71 46 123.5t31 87.5q40 121 53 218h-151q0 40 -6 58q-4 4 -4 9q0 7 10 26q3 7 7.5 17t-2.5 11l-11 5q-30 14 -30 31q0 15 22 28t50.5 23.5t57 16.5t42.5 6h83q9 0 24.5 2t32 4.5t32 4.5 t24.5 2q30 0 44 -8q12 -1 30.5 -2.5t42.5 -5.5q11 -2 18 -9t12 -14.5t8 -13.5t5 -6q7 0 6 -12.5t-1 -15.5l-11 -5q-3 -2 -3.5 -10.5t-0.5 -10.5q0 -10 9 -24t19.5 -29.5t19.5 -30.5t9 -26v-52q-6 0 -6 -4q0 -2 1.5 -5.5t1.5 -5.5q0 -4 -3 -6l-10 -26q-23 -60 -57.5 -150.5 t-75.5 -211.5q-11 -32 -19.5 -61t-15.5 -54l-15 -52l-293 -333l-204 -154zM479 999v16q-24 0 -26 -2q0 -2 26 -14zM591 910v19q-24 0 -26 -2q0 -3 26 -17zM769 292q1 -1 4 -1q11 0 11 11q0 3 -6 8t-7 5q-7 0 -7 -10q0 -5 5 -13zM512 41q-5 -4 -4 -10q4 -15 12 -13t13 10.5 t4.5 18.5t-12.5 10q-10 0 -13 -16z" glyph-name="FLW74" horiz-adv-x="1009" unicode="J"/><glyph d="M539 636l199 193l252 320q7 1 13.5 1.5t12.5 0.5q130 0 141 -191q8 -26 8 -41q0 -23 -13 -43t-29 -39.5t-30.5 -39t-18.5 -41.5l-29 -12q0 -14 -11.5 -27.5t-29.5 -27t-39.5 -27t-42.5 -27.5q-43 -29 -64.5 -55t-22.5 -46l-2 -40q-3 -4 -11.5 -10l-17 -12t-15.5 -11.5 t-7 -10.5q0 -10 14 -24l11 -10q13 -12 57 -65q31 -38 60.5 -81t57.5 -91q18 -31 33.5 -59.5t15.5 -44.5q0 -7 -9 -12.5t-20 -10.5t-20.5 -11t-11.5 -15l-6 -34l-11 -6q-18 -10 -52 -21l-32 -10q-12 -4 -22 -4q-12 0 -19 3l-16 7q-18 8 -42 4l-5 -10q-39 0 -73 18 q-20 10 -31 25t-17 29t-8 24.5l-2 10.5q-4 11 -14.5 16.5t-18.5 5.5q-2 0 -4 2l-16 10v27l-18 12t-9 18q0 7 1 11l-21 21q-6 6 -10.5 5t-8.5 -4.5l-8 -7t-7 -3.5q-7 0 -13 16l-10 26q-50 6 -126 -103l-62 -90q-35 -50 -64 -69l-15 -10q-12 12 -24 12q-10 0 -17.5 -4.5 t-14 -9.5t-13 -8t-15.5 -1l-21 5l-16 11q-2 2 0.5 16t3.5 15q-40 7 -56.5 31.5t-16.5 66.5q0 63 62 189q20 39 31 62t14 30q24 56 30 98q37 73 69 230q21 106 24 120q8 34 16.5 63.5t18.5 54.5q46 118 134 160q6 0 14 -3.5t12 -3.5q3 0 11 2l15 -11q6 -4 20.5 -9.5t31 -11.5 t31.5 -12.5t22 -13.5l32 -31l10 -16q7 -10 7 -36q0 -7 -1.5 -19.5t-3.5 -24.5t-5.5 -21t-6.5 -9l-48 -73l-19 -4q0 -16 4.5 -26t-0.5 -23l-11 -31l-21 -5q5 -26 -15 -51q-4 -5 -4 -9q0 -8 45 -8zM482 678q-16 0 -17.5 -4t3.5 -6.5t11 -1t3 11.5zM513 272q-8 -4 -13 -4 q-6 0 -6 10t-6 10q-18 0 -9 -10.5t22.5 -19.5t16.5 -10q1 0 1 2q0 9 -6 22zM589 176v27q-16 0 -16 -5q0 -1 7.5 -9.5t8.5 -12.5z" glyph-name="FLW75" horiz-adv-x="1185" unicode="K"/><glyph d="M488 190h230q26 0 26 -25q0 -63 -33 -90q-6 -5 -21 -7.5t-15 -6.5q0 -1 2 -7l-16 -16q0 -21 -5 -26q5 0 5 -11q-42 -64 -160 -76q-4 0 -31 -2t-61.5 -4t-67 -5.5t-47.5 -6.5q-55 -13 -73 -13q-59 0 -110 30.5t-73 82.5q-3 0 -6 7t-5.5 17t-4.5 19.5t-2 13.5q0 35 22 72 t53 54q13 29 25 59.5t23 61.5l45 125q55 156 96 241q23 133 110 262q8 17 20 40t28.5 43.5t37 33t45.5 8.5l78 -15q59 -12 94 -63q10 -15 5.5 -28t-24.5 -48q-10 -20 -16 -48t-17 -70l-10 -5q-1 -1 -1 -7v-7q0 -10 5.5 -24.5t5.5 -25.5q0 -8 -5 -20l-5 -10l-11 -16l-10 -5 q0 -12 -10 -13q-13 -1 -16.5 -21t-10.5 -42q-3 -8 1.5 -7t6.5 -5q-1 -9 -9 -33t-15 -37l-5 -10q-5 -11 -10.5 -29.5t-10 -37.5t-7 -34.5t-2.5 -19.5q0 -13 -9.5 -19.5t-12.5 -16.5l-5 -11l-11 -5l-1 -3t-4 -22q-1 -8 3 -8t10.5 2t13 3t9.5 -3q-7 -9 -15 -17.5t-21 -8.5 q-30 0 -30 -24q0 -5 5.5 -15t12 -19.5t12 -17.5z" glyph-name="FLW76" horiz-adv-x="764" unicode="L"/><glyph d="M958 -9v115q-11 13 -11 27q0 13 7 25t16 25.5t16 30.5t7 40t16.5 57t38 76t44 90.5t34.5 100.5q13 7 13 23q0 10 -6.5 23t-15.5 13q-5 0 -14 -6t-9 -12l-10 -5q-7 -4 -7.5 -11t1.5 -14.5t5 -14t3 -11.5q0 -12 -23 -12l-11 -10l-36 -5q-27 -40 -27 -63l-10 -5 q-18 -10 -37 -56q-3 -8 -7 -20.5t-8 -24t-6.5 -19.5t-4.5 -8t-4.5 6t-5.5 6q2 10 -1.5 16t-9 7.5t-10.5 -0.5t-5 -7v-42q0 -9 10 -16q7 -3 -12 -34t-46 -68t-52.5 -69.5t-32.5 -39.5q-1 -1 -4.5 -12t-10 -23t-16.5 -21.5t-25 -9.5q-10 -46 -59 -46q-8 0 -21.5 4.5 t-27.5 10.5t-27.5 10.5t-21.5 4.5q-42 29 -57 126q-5 34 -8 77.5t-3 95.5v131v13t1 18v32q0 86 -11 86q-6 0 -14 -19.5t-16 -44t-13 -47t-5 -28.5l-10 -5q-8 -5 -7 -12q1 -5 2 -12t2 -17q0 -5 -9 -7t-9 -7q-1 -4 9 -20q3 -7 0.5 -9.5t-7.5 -4t-9.5 -3.5t-4.5 -7 q0 -12 1.5 -16.5t-11.5 -4.5q-30 0 -30 -43l10 -5q19 -9 19 -15q0 -1 -8 -5t-17 -10t-17 -14.5t-8 -18.5t3.5 -14t-6.5 -4q-8 0 -4.5 -12.5t3.5 -20.5q0 -12 -11.5 -22t-11.5 -18q0 -9 8 -12t8 -12q0 -10 -6.5 -23t-6.5 -20q0 -5 3 -9l-11 -5q-8 -27 -11 -27l-2 8t-6.5 17.5 t-11.5 17t-16 5.5q-3 -6 -3 -13q0 -11 10.5 -22t10.5 -22q0 -3 -7.5 -22.5t-7.5 -31.5q0 -5 2 -15l-10 -11q-20 -21 -65 -21q-46 0 -61 16l-15 16q-18 0 -29 12.5t-18 32t-9.5 42.5t-2.5 43q0 62 26 142q6 18 24 60l37.5 87.5t37 85t22.5 53.5q17 44 29 83.5t19 75.5 q3 15 16 45t27 60.5t26 55t14 28.5q13 16 27 33.5t31 23.5l5 11q46 3 75 47q10 15 21.5 35.5t27.5 39t37.5 31.5t51.5 13q133 0 148 -93q1 -2 9 -10.5t8 -13.5q0 -4 -1 -7l11 -11q0 -11 4 -26.5t9.5 -31.5t9.5 -30t4 -22q0 -7 -1 -10l10 -21q0 -1 -2 -3t-2 -3 q1 -5 2.5 -15.5l3.5 -24.5q11 -48 16.5 -85t13.5 -37q-1 -5 -1.5 -9.5t-0.5 -9.5q0 -45 31 -45q15 0 34 28q44 62 127.5 164t207.5 244q12 9 26 23.5t30 29t32.5 24.5t32.5 10q29 0 50 -23t38 -48q-3 -16 7 -19l8 -2q5 -2 6 -5l31 -6q9 -2 24.5 -9t31 -16t28 -19t16.5 -18 q-1 -3 -1 -11q0 -11 10 -32.5t10 -39.5q0 -14 -8 -37t-8 -34q0 -3 2 -9l-10 -5l-6 -10q-10 -16 -10 -37q-33 0 -33 -43q0 -10 1 -15l-10 -15q-7 -10 -11 -29t2 -25q-45 -56 -106 -254l-46 -149q-11 -36 -21.5 -64.5t-21.5 -49.5q-11 -11 -11 -21l-10 -5q-5 -12 -25.5 -34 t-44 -43.5t-43.5 -38t-24 -16.5h-11q-45 0 -95 27q-86 47 -87 47zM1521 610q-9 -19 -13 -19v1q0 6 13 18zM1523 614l11 5q-10 -6 -13 -9q1 1 1 2t1 2zM1094 687q-3 1 -8 1q-4 0 -4 -1q-2 -4 1 -7t7 -2q4 0 4 9zM1147 667q20 0 20 6q0 8 -13 9q-9 0 -9 -7q0 -2 2 -8z M1000 426q-5 0 -5 1l2 2q1 1 3 -3zM963 392v-8q-5 0 -3 2.5t3 5.5zM136 295q4 -16 13 -16q14 0 14 23q0 17 -16 17q-14 0 -11 -24zM225 227q9 0 11.5 -2.5l2.5 -2.5q2 0 6.5 6t4.5 10q0 10 -13 10q-14 0 -14 -12q0 -3 2 -9zM251 176v9q-6 0 -3 -3zM272 106q-5 0 -5 -1 t1.5 -1.5t3.5 2.5z" glyph-name="FLW77" horiz-adv-x="1615" unicode="M"/><glyph d="M598 1100q21 8 35 8q29 0 44 -27t15 -70q0 -9 -1.5 -23t-3 -29t-3 -27.5t-1.5 -18.5q0 -11 10 -21.5t9 -31.5l-2 -38q0 -11 3 -15l11 -16q-10 -16 -10 -32q0 -8 3.5 -18.5t8 -21t8.5 -20.5t5 -17q-4 -2 0 -34.5t10.5 -75.5t12.5 -86.5t6 -67.5q0 -8 -0.5 -17t-1.5 -18 q57 63 127 269q25 72 38.5 112t16.5 47q33 90 69 153l-2 6q0 3 3.5 5t3.5 5l11 5l31 37q3 -2 13 2.5t13 7.5l16 11l89 10q0 -7 5.5 -6t10.5 1l10 -11q6 0 14 -5t8 -11q0 -3 -1 -4l-10 -42q-8 0 -7 -6t1 -10l-10 -11l0.5 -3.5t0.5 -4.5q0 -13 -13.5 -36t-13.5 -45v-20 q-35 -20 -35 -55q0 -12 9 -19l-32 -78l-16 -11q-3 -2 -8.5 -15.5t-11.5 -29.5t-11 -28.5t-6 -13.5q-1 -10 -7.5 -16t-13 -12.5t-10.5 -16t0 -25.5q-5 -25 -32 -69q-23 -38 -20 -77q1 0 -4 -11.5t-12.5 -25.5t-15 -25.5t-10.5 -11.5l-10 -15q-9 -13 -6 -16l-15 -68l-11 -11 q0 -35 -5 -52q-2 0 -6 -6.5t-7.5 -14.5t-6 -14t-2.5 -4l1 -7l3 -21q1 -7 -3 -11l-26 -21l-16 -16q-15 0 -32.5 -6.5t-34 -16.5t-29.5 -23.5t-19 -26.5l-5 -11q-6 -14 -24 -20t-34 -11l-31 -11q-1 -1 -4.5 0.5t-4.5 1.5q-4 0 -7.5 -3.5t-10.5 -3.5l-5 -10q-30 0 -36 10l-37 5 q0 3 -4.5 12t-10.5 19t-10.5 18t-4.5 9q0 4 3 8t3 14q0 5 -7 20t-9 42q-3 29 -4 44.5t-7 41.5l-6 29q-3 13 -4.5 34.5t-6.5 49.5l-11 20q-1 2 0.5 8.5t0.5 8.5q0 3 -6.5 15.5t-14 36t-14 57t-6.5 77.5q0 9 2 23.5t2 27.5q0 21 -9 24q-11 2 -15 -13q-2 -5 -11.5 -21.5 t-18.5 -36t-14.5 -39t0.5 -31.5l5 -11q18 -6 15 -10t-13 -8.5t-22 -11t-12 -17.5l-10 -5q16 -10 16 -25q0 -10 -10 -28t-11 -31q0 -3 5 -8q3 -3 0 -8l-11 -15l-9 1q-9 0 -22 -22l-10 -32q-2 -8 -7.5 -9t-5.5 -6q0 -2 0.5 -4.5t1.5 -6.5l11 -5q2 -1 1.5 -6.5t-0.5 -6.5 q0 -14 -3.5 -19.5t-8 -9t-8 -8t-3.5 -15.5q0 -7 -6.5 -14.5t-14.5 -17.5t-14.5 -24t-6.5 -36q0 -4 -7 -8t-16 -8t-16 -8t-7 -8q-13 5 -23.5 16t-29.5 11q-65 35 -65 91q0 30 18 55q48 217 173 440q5 16 19.5 45.5t31 60.5t30.5 57t18 36q11 11 11 21l10 10q1 9 1.5 18 t0.5 18v30q-1 10 -1 17v12q0 32 5 52q33 116 172 152q42 10 89 15zM300 378q16 -9 17.5 -3.5t-2.5 13t-10 10t-6 -13.5q0 -4 1 -6zM123 -12q0 6 -1 9q-11 -7 -19 -12t-8 -7q0 -3 21 0q7 1 7 10z" glyph-name="FLW78" horiz-adv-x="1253" unicode="N"/><glyph d="M1047 731l-1 -11q-1 -4 0 -9t1 -9v-20q0 -197 -115 -391q-66 -113 -133 -159q-34 -23 -58 -23q9 0 9 -2l-13.5 -7t-30 -16t-31 -17t-15.5 -9q-30 -25 -38 -66q14 -4 10.5 -9t-13.5 -11.5t-20 -13.5t-10 -14q0 -1 2 -9l-37 -5q-16 -2 -28 -11t-22.5 -19t-20 -18t-18.5 -8 t-26.5 3t-26.5 3q-43 0 -64.5 15t-49.5 40q-11 59 -59 88q-34 20 -104 32q-11 11 -26 11l-10 10q-12 11 -26 23.5t-25.5 29.5t-19.5 39.5t-8 54.5q0 78 22 151q14 50 52 142l26 63l15 15q19 19 57 60t79.5 87t79.5 87t57 60l10 10q2 2 14 0.5t14 -1.5t13 8t24.5 15.5 t26.5 10.5t18 -7l8 -4l8 4q-10 21 1 24.5t30 12.5l11 5l5 11l7 -1q22 -5 32 -7.5t8 -2.5l5 -10q7 -16 20 -8t13 20q0 5 -8 10.5t-8 9.5q0 -1 7.5 7l7.5 8l-6 21q-25 18 -25 33q0 11 12 19t28.5 12.5t34 6.5t29.5 2q160 0 234 -101q65 -89 65 -265zM737 108l1 1q-2 -1 -6.5 0 t-3.5 1l4 -2q1 0 6 -3t-1 3zM633 825q-59 -29 -89 -147l-11 -5q1 -9 -7 -15.5t-19 -12t-20 -9.5t-9 -8q0 -5 9.5 -15t9.5 -19q-12 -16 -25 -48.5t-26.5 -71t-25.5 -78t-22 -69.5q-25 -78 -22 -141q39 -11 65 -11q105 0 162 144q7 19 15 37t15 34l10 5l37 131q2 9 4 25t5 36 q2 11 6 26t11 34l10 15q1 1 3 15.5t2 24.5q0 9 2.5 23.5t5.5 30t5.5 30t2.5 23.5q0 11 -5 11q0 33 -1.5 56.5t-3.5 37.5q-5 22 -12 33q-11 13 -22.5 1.5t-22 -33t-20 -47.5t-17.5 -43zM570 -2q-11 -4 -13 -8.5t1.5 -9t10 -7.5t13.5 -3q8 0 13 5t3 18q-2 17 -17 17 q-6 0 -11 -12z" glyph-name="FLW79" horiz-adv-x="1067" unicode="O"/><glyph d="M1100 766q-11 2 -7.5 -4t7.5 4zM562 560q-11 -5 -8.5 -10.5t12.5 -9.5t24.5 -6.5t28.5 -2.5q84 0 88 -48q7 0 10.5 -3.5t6.5 -3.5t9 2l3 11q1 3 3 12.5t5.5 21t7 22.5t7.5 17l11 21q8 16 15 51.5t12.5 77.5t8.5 84t3 70q0 23 -12 23q-5 0 -11 -3q-30 -28 -61.5 -34.5 t-57 -16t-41.5 -34t-15 -89.5l-6 -25q-1 -5 -7 -23l-13 -39t-13.5 -40t-9.5 -25zM1115 860q7 -17 7 -39q0 -18 -4.5 -35.5t-10.5 -27.5q4 -8 -3.5 -17t-7.5 -20q0 -9 4 -18l-11 6q-10 22 -20 22q-19 0 -19 -36q0 -11 3.5 -21.5t12.5 -10.5q1 0 1 -4t-2 -4l-15.5 -17.5 t-37 -41t-44 -48t-36.5 -38.5l-15 -16l-32 -21l1 -3.5t1 -2.5q0 -3 -3.5 -5t-3.5 -5l-11 -5l-3 -29q23 -20 23 -41q0 -20 -22.5 -41.5t-52.5 -40t-60 -30.5t-47 -12l-246 42q-23 -120 -106 -217q-25 -28 -46 -45q-5 0 -5 -10l-16 -10l-36 -16q-10 -24 -42.5 -33.5 t-60.5 -9.5q-60 0 -94.5 33.5t-28.5 93.5q17 20 17 51q0 10 5 18t5 20l10 10q0 22 9.5 42t16.5 42l26 73l11 5l5 11q14 31 35 76.5t46 108.5q40 100 65.5 167t41.5 101q66 146 147 248q20 3 36 3q90 0 127 -66q6 -12 13.5 -26t21.5 -14q15 0 34 14.5t42.5 35t52 41.5 t61.5 33q10 0 31 -1t31 -1q9 0 22.5 3t28.5 6.5t28.5 6.5t22.5 3q56 0 92.5 -34t36.5 -90q0 -21 -5 -39q6 -21 6 -33q0 -45 -33 -41z" glyph-name="FLW80" horiz-adv-x="1163" unicode="P"/><glyph d="M581 1078q23 6 45 -1.5t37 -7.5q10 0 28.5 5t30.5 4l95 -5q4 -6 12.5 -4.5t19.5 1.5q5 0 15 -2l73 -16l22 -11q23 -11 41 -15q99 -58 141 -152q4 0 8 -14t7.5 -32.5t5.5 -36.5t2 -27q0 -51 -7 -89q-11 -2 -11 -21v-10.5t1 -10.5q1 -6 0.5 -11t-1.5 -9q-28 -103 -99 -189 q-1 -2 -7.5 -7t-13.5 -12t-13.5 -14.5t-7.5 -13.5q-4 -4 -14 -8.5t-21 -10.5t-19.5 -14t-8.5 -19l-10 -11q-22 -25 -22 -32q0 -6 -0.5 -10t-8.5 -4q-7 0 -11 4q7 10 5.5 16t-5.5 10.5t-8 10.5t-3 16l11 5q0 32 -14 32q2 0 -5.5 -5t-17.5 -14t-18.5 -20.5t-8.5 -24.5 q0 -5 26 -31l21 -21q5 -5 9 -10.5t8 -10.5l115 -183q6 -9 6 -23q0 -7 -2 -20t-2 -20q0 -26 45 -26q-10 -21 -10 -52q-24 -5 -55.5 -20.5t-58.5 -28.5q-76 -36 -132 -30q-135 13 -210 152q-10 10 -10 21q-4 0 -18 -6t-32 -14.5t-37 -16t-34 -10.5q0 -10 -9 -14.5t-23 -4.5 q-20 0 -47 6.5t-51 14t-40.5 13.5t-14.5 6q-36 13 -66 28t-55 31q-129 82 -129 225v15q0 10 1 15q54 197 147 339q15 22 33 47t39 53l69 89l15 11l42 5l5 11q7 2 19.5 9.5t25.5 16.5t24.5 16t17.5 7t7 -4.5t2 -10.5t4 -12t15 -9q10 -2 12.5 1.5t2 9t-2.5 12t-2 10.5 q0 9 11.5 16.5t25.5 15.5t25.5 16.5t11.5 20.5q0 8 -15 13l-35 8q-54 12 -60 42q-3 17 7 27.5t28 16.5t41 10t45 8zM591 717l-110 -235q-12 -26 -19.5 -42t-9.5 -22q-14 -36 -18 -67q-16 -40 -34.5 -99t-38.5 -137q-16 -25 -16 -56q0 -19 16 -19q15 0 35 14.5t28 29.5l10 5 q72 36 72 57q0 5 -5 22t-11 35t-10 32.5t-2 14.5t2 4t-2 4q-4 0 -5 9t-1 14q0 -5 9 54l11 5q1 0 4 4.5t3 5.5l-2 6l21 16q6 4 11 10.5t12 6.5q2 0 8 -2l6 11l42 -5l31 -11q1 0 12.5 -3.5t21.5 -3.5q12 0 23 11t19.5 28t13.5 37t5 38q0 3 5 3l26 89q4 12 4 39v24q0 3 2 10.5 t5 16t6 14.5t4 6q1 13 -2.5 29t-3.5 21q0 13 2 28.5t2 36.5q0 8 -0.5 16t-1.5 18q-6 60 -38 60q-19 0 -38.5 -17.5t-38 -44.5t-35 -59t-30.5 -62zM858 487q5 0 5 2q0 1 -2.5 5.5t-2.5 8.5q-7 0 -7 -2q0 -1 4 -4.5t4 -6.5q0 -2 -1 -3zM895 461q-8 -21 -8 -26q0 -11 14 -11 q12 0 25 3q11 3 10 -2.5t-7 -15t-12.5 -20t-6.5 -18.5q0 -7 0.5 -12t0.5 -10l-1.5 -7t-2.5 -15t-0.5 -13t4.5 0l57 84q12 18 12 35q0 41 -53 41q-19 0 -32 -13zM785 346q-13 -6 -13 -17q0 -9 8.5 -15.5t17.5 -6.5q8 0 21.5 11.5t13.5 18.5q0 20 -26 20q-14 0 -22 -11z" glyph-name="FLW81" horiz-adv-x="1184" unicode="Q"/><glyph d="M157 361l173 388q6 12 14.5 37t18.5 53t18.5 53t14.5 37q49 107 133 118q15 6 27 6q9 0 20.5 -5.5t22 -13t19 -14.5t11.5 -9l10 -6q6 -5 6 -10q0 -4 -1 -5l16 -16q21 -21 44 -21q14 0 25 4t23 13.5t27 24t37 35.5q80 77 146 77q18 0 28 -13.5t20 -13.5q11 0 28 6.5 t25 7.5l126 16q54 7 87 -36t33 -111v-62q-7 0 -5 -7.5t2 -12.5t-2 -7l-10 -21q-7 -13 -10 -20l-3 -7q0 4 -2.5 -4t-6 -19.5t-6.5 -22t-4 -10.5l-21 -53q-2 -5 -6 -21.5t-11 -34.5t-16.5 -33.5t-23.5 -20.5q-14 -4 -25.5 -25.5t-24 -46t-25.5 -45.5t-30 -24l-26 -5 q-5 -1 -11 -1.5t-12 -2.5q-10 -3 -14.5 -9.5t-8 -13.5t-8.5 -12t-15 -5t-8.5 3t7.5 8t13.5 11t9.5 11l5 11q6 11 16 17.5t19 12.5t14.5 13.5t2.5 19.5q-3 0 -5.5 2.5t-9.5 2.5h-27q0 -7 -3.5 -10.5t-3.5 -6.5t2 -9l-21 -16l-21 -21q-12 0 -21.5 -7.5t-17.5 -16.5t-15 -17.5 t-14 -10.5l-5 -11q-29 -11 -29 -29q0 -6 7 -18.5t15.5 -27t15.5 -28t7 -22.5q7 0 19 -18t26 -45t29.5 -58t29.5 -57l6 -11q0 1 -1.5 -2.5t-1.5 -2.5q0 -3 4 -8t4 -8q-1 1 -4 1q-9 0 -12.5 -7t-4 -15.5t0 -16.5t0.5 -11q0 -7 -6.5 -2.5t-15.5 14.5t-18 22.5t-14 20.5 q-17 4 -17.5 -3t6 -18t14.5 -24t8 -22q0 -7 -9 -19.5t-22 -24.5t-26 -20t-21 -6q-41 29 -52 29q-17 0 -22 -23q-123 -3 -189 119q-9 16 -24 55t-32.5 79t-34.5 70.5t-29 30.5q-11 0 -20.5 -12.5t-18.5 -31.5t-17.5 -41.5t-16.5 -43.5l-5 -11l-11 -15l-10 -11q-7 -7 -15 -21 t-16.5 -28.5t-16.5 -28t-15 -21.5l-63 -68l-10 -6l-16 -15q-2 1 -13 -5t-25.5 -13.5t-29 -14t-24.5 -6.5q-7 0 -30.5 17t-49 39.5t-45.5 46t-20 35.5q0 32 10 73.5t30 73.5q9 15 20.5 39t29.5 55q13 23 26 41t21 37zM739 707l-178 -246q-5 -10 -5 -18t4 -15q8 -17 22 -4 l298 262q93 83 147 262q10 33 10 52q0 27 -18 27q-7 0 -14 -5t-14 -11.5t-13 -11.5t-12 -5q-2 0 -8 2l-9 4q-5 2 -11 0q0 -12 13 -22q9 -9 -3 -20q-16 0 -15 -7t6 -15t7 -15t-11 -7q-19 0 -41 -17t-46.5 -45.5t-51.5 -66t-57 -78.5zM953 398q8 -7 7 -15t-5.5 -12.5t-10 -3 t-6.5 14.5q-9 5 -8 9.5t5.5 7t10.5 2.5t7 -3z" glyph-name="FLW82" horiz-adv-x="1329" unicode="R"/><glyph d="M166 434q-16 22 -34 47t-18 50q0 10 6 25t6 25q0 6 -1.5 18t-1.5 18q0 -2 3.5 15.5t8.5 41t12 46.5t14 33l15 21q6 0 24 15t40 34t42 35.5t31 20.5q31 11 59 30t48 53q10 18 27.5 47t44.5 62q23 28 59 41t76 13q17 4 39 4q37 0 70 -14l58 -27q10 -5 30.5 -17.5t40.5 -29 t35 -35t15 -35.5q0 -31 -19.5 -67.5t-40.5 -66.5q-57 -78 -119 -78q-21 0 -41 10l-131 63l-5 10q0 -1 -5.5 0.5t-12.5 3.5t-12.5 4l-5.5 2q-28 0 -51 -44q-7 -12 -28 -76q14 -18 53.5 -40.5t88 -46l97 -47t79.5 -43.5q90 -59 90 -126v-42q0 -63 -68 -178q-10 -3 -14 -3 q2 0 6.5 7.5t8.5 16.5t7 16.5t3 6.5q0 7 -7 11.5t-7 0.5q0 -3 -2 -9l-11 -16q-2 -2 -6 -1t-4 -4l-53 -63q-21 -26 -21 -31l-36 -6q-10 -27 -10 -32q0 -7 5 -15q-6 -8 -13.5 -4t-18.5 15q-66 -18 -126 -133q-55 -105 -143 -105q-35 0 -71.5 7t-52.5 13q-53 20 -99 62t-84 103 l-10 16q-5 8 -5 23q0 41 15 56q0 -6 9 5l20 24q33 39 44 39l16 15l32 16l10 11q1 1 3 1t5 -1.5t4 -1.5q4 0 4 7l42 5l31 11q2 1 7.5 -0.5t7.5 -1.5q26 0 53 -9.5t47 -9.5l16 -16q11 0 19 -8t18 -8l15 -10l16 -26l4 1t2 1q3 0 5 -4t5 -4l10 -26q6 -16 16 -16q12 0 28 26.5 t30 56.5q-62 34 -158.5 88t-229.5 128zM798 337q0 -1 -12 -18q25 5 26 5q15 0 15 13q0 4 -1.5 8t-7.5 5q-20 3 -20 -13z" glyph-name="FLW83" horiz-adv-x="936" unicode="S"/><glyph d="M329 1086h272q15 0 45 -1.5t45 -1.5q26 0 41 3q26 -3 59 -3q12 0 31.5 1.5t40.5 3.5t40.5 3.5t31.5 1.5q27 0 38 -14.5t21 -45.5q-5 -5 -7 -17t-5.5 -24t-11 -20.5t-23.5 -6.5q0 -9 -11 -17.5t-11 -26.5q0 -5 0.5 -12.5t0.5 -11.5l-89 -16l-0.5 0.5t-1.5 0.5q-8 0 -25 -5 t-37 -11t-39.5 -11t-32.5 -5q0 -3 -6 -13t-12.5 -23.5t-12.5 -29t-6 -28.5l-19 -61q-5 -14 -12 -32t-16 -38l-21 -47l-11 -37q-10 0 -10 -10l-2 -12q-2 -15 -5.5 -27t-5.5 -20q-3 -9 -3 -4q-7 -4 -12 -22t-9.5 -39t-9 -40t-11.5 -25l-10 -15q-42 -64 -58 -110q-7 -6 -16 -19 t-17 -29.5t-14 -35t-6 -37.5q0 -10 1 -15q-3 2 -6.5 -4t-7.5 -14.5t-8.5 -15.5t-10.5 -7q-5 0 -15 2t-15 2q-3 -4 -5 -14t-2.5 -19.5t1.5 -17t6 -5.5q6 5 12 11t13 11q19 0 19 -15q0 -12 -12 -20t-24 -8q-15 0 -33.5 9.5t-21.5 9.5q-2 -2 -5 -10.5t-7 -8.5q-5 0 -9 4 l-16 -21q-2 -2 -13 -5t-18 -6q-5 5 -5 10q0 1 5 11.5t4 13.5q-11 18 -15.5 12t-7.5 -20.5t-7.5 -29t-15.5 -13.5l-89 11q-24 3 -24 -9q0 -9 4 -17q2 -7 -8 -2t-10 20q0 13 8.5 34t8.5 37q-24 0 -24 62q0 54 14 84l10 21q6 11 2 18.5t-4 17.5q0 -2 7.5 15t19 38t24 39 t21.5 18q10 0 19 -4q0 3 3.5 5t3.5 4t-2 6l11 6q4 1 0 9l-5 6q-18 0 -37 -10q-3 9 -3 21q0 18 10 53t31 84q14 32 33 80t44 113q1 3 8 15t14 27t12 29.5t3 22.5l15 15q3 3 4.5 9.5t6.5 11.5q0 26 -22 26q-12 0 -33.5 -5t-33.5 -5q-25 0 -53 10t-73 27l-26 10q0 11 -5 11 q-5 5 -13 16.5t-15 26t-10.5 28.5t1.5 23l11 21q6 11 8 29.5t5.5 36t11.5 30t25 12.5q12 0 28 -3l89 -16q33 -6 65 -6h12.5t17.5 1h31zM973 1086q-4 0 -4 1l1.5 1.5t2.5 -2.5zM313 594q3 -5 5 -5q5 0 5 5q0 2 -3.5 5.5t-7.5 4.5q-6 -2 -7 -5t8 -5zM235 505q-9 0 -3 -3t3 3z M219 410q-3 -3 -3 -7q0 -12 15 -12q16 0 16 13q0 8 -6 16t-12 8q-9 0 -10 -18zM329 332q-4 0 -4 -1q0 -2 1.5 -1.5t2.5 2.5zM93 212v10q-7 0 -4 -3t4 -7zM219 149q-4 0 -4 -1l1.5 -2t2.5 3zM376 143q-6 2 -7 0t0.5 -4t4 -2t2.5 6zM172 122q20 0 20 8q0 7 -10 8t-10 -16z M366 75q6 3 6 9q0 10 -8 10q-4 0 -9 -3q-1 1 1 -2t4 -7t4 -6.5t2 -0.5zM334 54q6 -2 7 -2q7 0 7 11q0 18 -8 18q-6 0 -6 -27z" glyph-name="FLW84" horiz-adv-x="1012" unicode="T"/><glyph d="M586 975q-4 -25 -10 -44t-11.5 -35.5t-9.5 -33t-4 -35.5q0 -26 -10 -38t-21 -41q-5 -12 -18 -62q-5 -20 -15.5 -44t-10.5 -49l-11 -11q-2 -2 -5.5 -24.5t-9.5 -38.5l-11 -15q-8 -10 -13 -29.5t-8 -38.5t-4 -33l-1 -14q-13 -22 -13 -59q0 -21 4.5 -47.5t14 -49t23.5 -38 t32 -15.5q21 0 45.5 31t48.5 77.5t45.5 101.5t36.5 102q1 3 7.5 24.5t16.5 54l22 71.5t24 75.5t22 67t16 45.5q74 183 184 260q5 11 29 11q11 0 27.5 -1.5t27.5 0.5q0 -8 4 -5.5t2 2.5q2 0 4 -2l26 -10l32 -21q1 -1 5.5 -9.5t9 -20.5t8.5 -25.5t4 -22.5q0 -7 -3 -19t-3 -18 l-11 -11q0 -10 -5.5 -14.5t-12.5 -9.5t-12.5 -13t-5.5 -26l10 -5q4 -2 5 -11t1 -8q0 -11 -14 -11q-8 0 -21 4t-18 5l-5 -10l10 -21l-16 -26q-8 -15 -7 -18q0 -4 5 -7t10 -5.5l8 -4t1 -1.5q-6 0 -6 -17l-11 6q-4 1 -7 8t-11 7q-19 -4 -20.5 -6.5t-1.5 -17.5l-1.5 -8t-3 -19 t-3 -24t-1.5 -23q0 -16 -17 -16q-1 0 -6 0.5t-6 0.5q-16 0 -16 -14q0 -13 11 -40l-11 -16l-10 -5q-10 -4 -8.5 -14t1.5 -18q0 -7 -3 -18.5t-9 -22t-15 -17.5t-21 -4q-14 3 -16.5 -0.5t0 -11t7 -17t4.5 -18.5q0 -16 -8 -27l-53 -73q-21 -29 -45 -55.5t-44 -28.5q0 -14 -9 -18 t-17 -5.5t-12 -5.5t7 -18l-1 -6q-5 -32 -25 -41l-11 -5l-16 -11q-10 -7 -18 -11t-8 -20l11 -5q-5 -5 -8 -10.5t-7 -5.5h-17q-7 11 -9.5 8t-3 -11.5t0 -18t0.5 -10.5q0 -6 4.5 -12.5t4.5 -12.5q0 -3 -2 -11q-26 -48 -83 -73.5t-116 -25.5q-149 19 -239.5 109.5t-111.5 240.5 q2 1 4 21t5 44t6 45.5t6 25.5l11 16q1 3 0 16q-1 4 3.5 16.5t9.5 27.5l9.5 28.5t4.5 21.5q0 7 -1 10q50 62 84 211q27 114 27 116q9 33 19.5 61t21.5 51q57 115 167 127q7 1 13.5 1.5t13.5 0.5q31 0 60.5 -8t53 -22.5t37.5 -34.5t14 -45q0 -11 -3 -23zM879 577q21 0 21 9 q0 12 -16 12q-5 0 -6 -4q-3 -5 1 -17zM842 446q-10 2 -11.5 -1.5t1 -6t6.5 -2t4 9.5z" glyph-name="FLW85" horiz-adv-x="1141" unicode="U"/><glyph d="M785 1086q13 3 26 3q23 0 40 -10t28.5 -26.5t17.5 -38t6 -43.5q0 -10 -4.5 -21.5t-10.5 -23t-10.5 -21t-4.5 -15.5q0 -9 9 -13.5t9 -15.5q0 -4 -11.5 -15l-11.5 -11q0 -9 -4.5 -19.5t-10 -19.5t-10.5 -15.5t-6 -8.5q-12 -4 -13 -19.5t-8 -22.5l-26 -26l-63 -110 q-1 -2 -3 -3t-2 -8l-16 -15q2 -11 5 -12t7.5 2t9 7t9.5 4q1 0 1 -2q0 -21 -6.5 -30.5t-16 -15t-19.5 -10.5t-16 -17q-8 -3 -9 -8t-1 -10.5t-2.5 -9.5t-13.5 -4q-24 0 -33 -25t-9 -51q0 -16 -13 -29.5t-29 -13.5q-6 -3 -10 -16.5t-5 -24t-1 -12.5q-3 0 -5 4t-5 4 q-9 0 -6.5 14t9 30.5t13.5 29.5t7 11q0 16 -13 16q-59 0 -59 -27q0 -2 2 -8l-11 -16q19 -10 19 -37q0 -15 -8.5 -30t-22.5 -15q-10 0 -19 9q-8 -3 -8 -10q0 -8 8 -19.5t8 -12.5q-1 -1 -8.5 -1t-14.5 1.5t-12 2.5t-2 1q-16 0 -16 -12q0 -6 3 -13l10 -5q1 -1 1.5 -5.5 l0.5 -4.5q0 -4 -3.5 -10t-3.5 -12q-14 -7 -8.5 -19t5.5 -25q0 -11 -18 -11q-15 0 -15 8t-10 8q-9 0 -9 -8q0 -5 -3 -9.5t-3 -18.5q0 -56 -28 -56q-10 0 -20.5 -11.5t-13.5 -10.5q-4 1 -8 17q1 0 -13 -11.5t-33 -25t-40 -25t-33 -11.5q-16 0 -16 15q0 16 -13 16 q-7 0 -9.5 -2.5t-3.5 -6t-3.5 -7t-9.5 -4.5q-26 -5 -44 14t-29 50t-15.5 67.5t-4.5 66.5v110q0 10 2 25t4 30.5t4 29.5t2 23q0 13 -1 18q3 62 6 124.5t7 124.5q4 71 9 134t14 114q2 14 13.5 40t26.5 54q14 26 35 38.5t43 12.5q28 0 47 -5.5t33.5 -15t28 -24t30.5 -32.5 l16 -16l15 -21q6 -7 6 -28v-22q-1 -7 -1 -12v-9q0 -44 11 -44l5 -10q2 -4 4 -1t4.5 7t5.5 6.5t7 -2.5q-2 -34 -9 -98q-4 -14 -10 -23.5t-6 -21.5q0 -10 6.5 -31t6.5 -34q0 -15 -9 -46q-1 -3 -5 -11t-7 -17t-4 -15.5t5 -6.5q20 0 49.5 27.5t61.5 84.5q23 42 57 106.5 t82 148.5q89 155 170 199zM821 835q3 -6 9 -5.5t9 3.5t2 7t-11 5q-9 1 -9 -10zM790 641q-5 0 -5 1l2 2q1 2 3 -3zM785 639v-9q-7 0 -4 2.5t4 6.5zM779 625q-4 0 -4 1l2.5 0.5t1.5 -1.5zM774 620q-5 0 -5 1l2 2q1 1 3 -3zM759 594q-6 0 -4 1t4 -1zM753 589q-4 0 -4 1l1.5 2 t2.5 -3zM748 583q-5 0 -5 1q0 2 1.5 3t3.5 0q1 -1 0 -4zM743 573q-4 0 -4 1l1.5 2t2.5 -3zM617 484q26 0 26 21q-5 7 -11 7t-10.5 -4.5t-6 -11t1.5 -12.5zM586 453q-5 0 -5 -1t3.5 -3t1.5 4zM460 220v-8q-6 0 -4 3q3 3 4 5z" glyph-name="FLW86" horiz-adv-x="923" unicode="V"/><glyph d="M1043 66q-11 0 -8.5 -4t11 -9.5t20 -10.5t17.5 -7q-6 15 -13.5 23t-26.5 8zM1140 39q-8 0 -15.5 -3.5t-29.5 -13.5q-18 0 -75 -19.5t-147 -45.5q-17 0 -13.5 4t9.5 2q7 4 3 8.5t-4 12.5l-89 -11q-4 19 -16.5 30t-30.5 18t-40 12t-44 13l-10 6q-40 25 -64.5 49t-24.5 55 q0 49 -14 49q-9 0 -23 -17l-26 -32q0 -48 -74 -83l-10 -6q-6 -5 -6 -10q0 -4 1 -5l-32 -21l-10 -21l-32 -21q-10 -6 -19 -17l-14 -17q-25 -30 -65 -30q-76 0 -135 53q-55 49 -70 126q16 57 16 86v24q-1 8 -1 14v10q0 24 6 34q26 150 26 251l3.5 14t5.5 21.5t5.5 22.5t2.5 17 q0 11 1 17.5t1 20.5q0 5 2 7l10 16q3 5 3.5 12.5t0.5 16.5v12q0 14 1 26.5t0 26.5q12 3 12 31q0 8 7 38t12 94l1 20l10 21q41 86 134 86q29 0 56.5 -11.5t51.5 -31t42.5 -45t27.5 -53.5q7 -18 7 -35q0 -10 2 -13l4 -6t4 -9t2 -21q0 -14 -5.5 -37.5t-5.5 -37.5 q-19 -53 -41 -200q-19 -131 -48 -193q-6 -13 -2.5 -25.5t3.5 -23.5q0 -1 -7 -15t-11 -26q-1 -6 5 -6q16 0 27 18l11 15q4 6 18 21t24 45l11 32q4 12 7 17t6.5 5.5t8.5 -1t12 -1.5q9 0 14 16t10.5 36.5t13.5 38.5t22 22l10 15q8 12 13.5 34t2.5 34l10 21q21 44 21 79 q0 40 11 68q17 131 58 195q53 83 164 83q17 0 40 -3.5t48.5 -10t51 -16.5t46.5 -23q6 0 11.5 -6.5t11 -14.5t9 -14.5t5.5 -6.5v-37q0 -7 -11 -26l-15 -37q-1 -3 -8 -12.5t-14.5 -22.5t-13.5 -26t-6 -22l-16 -16q-22 -22 -16 -42l-10 -10q-6 -6 -4.5 -19.5t1.5 -26.5 q0 -20 -8 -28l-10 -15v-47q-15 -5 -15 -33q0 -18 10 -25q7 -10 6 -18.5t-4.5 -16.5t-8 -16t-4.5 -17q-10 -31 -10 -99l-2.5 -21t-5.5 -46.5t-5.5 -47.5t-2.5 -24q0 -52 31 -39l11 5q7 3 16 12t20 19l10 11q1 1 4.5 13t3.5 13q0 3 -2 5l-10 11q-8 8 -6 14t10 10t19.5 6 t21.5 2l7 1q1 0 -6.5 5t-19.5 9q92 169 169.5 315.5t139.5 270.5q0 17 11.5 28.5t14.5 23.5l5 21l9 13.5t21 30.5t24.5 32t19.5 18l26 11q21 9 44 9q67 0 126 -65q52 -58 52 -112q0 -4 -4.5 -13.5t-9.5 -21.5t-9.5 -25t-4.5 -25q0 -9 -2.5 -22t-7.5 -26t-12 -22.5t-15 -11.5 l-26 -63q-4 -10 -12 -16l-17 -13q-22 -16 -22 -33q0 -14 9 -27q-4 -2 -12.5 -8.5t-16.5 -14t-13.5 -14.5t-4.5 -10l2 2q2 -2 2 -4t-10.5 -14.5t-23.5 -26.5t-24.5 -26.5t-13.5 -14.5q-11 -9 -5.5 -13.5t14.5 -11.5q6 -6 -3 -16.5t-22 -22t-25 -21.5t-12 -14q-2 -3 -12.5 -22 t-22.5 -44.5t-12 -33.5l-10 -5l-42 -68q5 -29 -22 -29q-7 0 -14.5 6.5t-11.5 12.5q-11 -16 -11 -23q0 -11 24 -11q-1 0 -10 -14t-22 -30.5t-27.5 -30.5t-26.5 -14zM1146 163q5 -3 11.5 -6.5t14.5 -7.5q-2 11 -3.5 19.5l-1.5 8.5q-12 0 -21 -14zM1617 879q-2 -10 -13.5 -29.5 t-11.5 -32.5q0 -5 5 -15t12 -10t18 57q5 23 3 37q0 6 -3 6q-7 0 -22 -28zM1271 266q0 12 -7 11t-24 -14q2 -1 4.5 -1t5.5 -1q-12 -7 -10 -9.5t9 -2t14.5 5t7.5 11.5zM1310 359q1 -1 -6.5 -4.5t-13.5 -10.5q-1 -10 2.5 -28l3.5 -18q1 0 6.5 2.5t12 6.5t11.5 10t5 12 q0 9 -6.5 19t-14.5 11zM1339 396q-1 0 -12 -9q-18 0 -10.5 -11.5t23.5 -11.5q8 0 14.5 2.5t6.5 7.5q0 8 -6.5 15t-15.5 7z" glyph-name="FLW87" horiz-adv-x="1681" unicode="W"/><glyph d="M1131 282l209 162q25 -16 25 -34q0 -11 -9.5 -29.5t-15.5 -30.5l-31 -5l-5 -11q-2 -4 -6 -5t-5 -4q0 -4 4.5 -8.5t11.5 -8.5t14 -7t12 -3q0 -10 -8.5 -29.5t-18.5 -40.5t-18 -41t-7 -31q-6 -19 -14.5 -24.5t-15.5 -9t-12 -12t-5 -32.5q-16 0 -32 -16l-26 -16 q-2 -1 -2.5 -6t-1.5 -10.5t-3.5 -10t-8.5 -4.5l-5 -10q-2 -5 -9 -8l-12 -6q-16 -7 -16 -18q-13 -7 -38.5 -15.5t-34.5 -8.5q-6 0 -26.5 10t-42 22t-38 22t-15.5 10q-14 0 -30 -8l-21 -11l-2.5 0.5t-3.5 0.5q-7 0 -19 -14t-20 -14q-4 0 -7 1l-16 -11l-6.5 0.5t-12.5 -0.5 q-15 0 -56 -3q-17 -1 -31 -1.5t-25 -0.5q-32 26 -50 82q-1 2 -6.5 26t-16.5 70q2 5 -9 38t-24.5 70.5t-26 67.5t-14.5 30q-21 0 -15 -26q2 -9 5 -12q-5 -5 -9 -5q-24 0 -51 -11.5t-27 -43.5q0 -20 -3.5 -26t-7.5 -6q-2 0 -4.5 1t-4.5 1q-4 0 -7 -5t-3 -23v-30 q0 -14 -7 -33.5t-7 -33.5q-10 16 -34 16q-39 0 -34 -53l-10 -5l-6 -10l-47 -11q0 -14 -9 -24t-12 -18l-10 -31q-3 -10 -6 -8t-4 8l-4 12q-1 6 -4 6q-4 0 -9.5 -8t-14 -17t-20 -17t-28.5 -8q-32 0 -67 32l-16 10q0 3 -5 9.5t-11 15.5t-11 18.5t-5 18.5q0 18 22 37l18 16 q4 4 7.5 8t5.5 8l26 16q23 14 47 43t47 51l194 194q17 16 28 28t18 20q19 22 33 46t14 50q0 35 -20 86q-14 34 -21.5 55t-9.5 29q-3 0 -9.5 18t-6.5 24l-10 10q-8 8 -11.5 14t-5.5 15t-4 23t-7 36q-11 41 -40 54l-11 5q-1 6 -1.5 11.5t-0.5 9.5q0 18 10.5 38t28.5 37 t42.5 28.5t52.5 11.5q5 0 10 -5l42 5h63l41 -32l16 -26q2 -3 6.5 -1t4.5 -4l21 16q17 13 33.5 -8t31.5 -54.5t29.5 -70t26.5 -55.5q9 0 19.5 6.5t22 16t22 20.5t18.5 19l58 56q17 16 43.5 38.5t61.5 52.5q18 16 33 18t30 3t32.5 7t40.5 29l11 11q29 29 80 29q24 0 48 -13.5 t42.5 -35.5t29.5 -50t9 -56q5 -11 2 -30.5t-4 -19.5q0 -8 2 -23.5t2 -35.5q0 -1 -3.5 -4.5t-3.5 -6.5l-10 -21q-1 -2 0.5 -5.5t1.5 -4.5q0 -6 -6.5 -12t-6.5 -15l-21 -5l-16 -26q-1 -3 -12 -11.5t-24 -18t-25 -18t-17 -10.5l-11 -5q0 10 -5.5 24.5t-14.5 14.5q-6 0 -9 -17.5 t-7 -21.5l-11 -16q-5 -8 -10 -8q-8 0 -16 14l-5 10q9 11 7 21t-9 20t-14 20.5t-7 23.5q0 3 2 9q0 49 -15 49q-12 0 -47 -48l-24 -34q-9 -13 -19 -19l-10 -5q-18 -9 -41 -34.5t-43.5 -56.5t-35 -61.5t-14.5 -49.5q0 -16 8 -29l10 -15q10 0 19 -25.5t15.5 -56t10.5 -55 t5 -21.5q-3 -10 -1 -30t7.5 -40.5t13.5 -36t19 -15.5q31 0 65.5 27t76.5 59zM660 999q-5 0 -5 1q0 2 1.5 2t3.5 -3zM859 486q3 -1 9 -1q3 0 4 1t-3.5 11t-13.5 10q-3 0 -3 -3q0 -5 7 -18zM880 413q5 -5 8 -5q9 0 9 23q0 1 -3 7.5t-6.5 13t-6.5 12l-3 5.5q-2 -4 -1 -13 t3 -22.5t0 -20.5zM874 387q0 -30 17 -30q5 0 12.5 10.5t7.5 26.5q0 9 -19 9q-22 0 -18 -16zM476 256q-5 0 -5 1l2 2q1 1 3 -3zM1251 177q8 -5 13 -2.5t6.5 6.5t-0.5 8.5t-7 4.5q-13 0 -13 -11q0 -4 1 -6zM335 130q-5 -4 -4 -10q1 -12 6 -13.5t10 2.5t9 12.5t4 15.5 q0 14 -15 14q-10 0 -10 -21zM1157 109q-19 -3 -19 -17q0 -21 21 -21q8 0 22 10.5t14 18.5q0 21 -19 21q-12 0 -19 -12z" glyph-name="FLW88" horiz-adv-x="1408" unicode="X"/><glyph d="M463 862q8 -18 11 -54q1 -13 2.5 -31.5t4.5 -35.5t8.5 -29.5t14.5 -12.5q22 0 25 13.5t8 18.5l10 5q4 2 10.5 13.5t12.5 24t10 21t4 4.5l10 11l11 15l5 11q3 8 17 16t14 26l89 104l6 11q10 19 30 34t48 34l5 10q2 5 11 9t20 7.5t21 5.5t13 2q20 0 36 -12.5t31 -29 t28.5 -33.5t28.5 -27q0 -57 -5 -79q13 0 7.5 -12.5t-19 -29t-29.5 -33t-22 -24.5q-39 -53 -65.5 -82.5t-44.5 -38.5l-11 -5l-26 -21q-1 -1 -6 -8t-10.5 -15.5t-11 -15t-8.5 -6.5q-7 0 -7 21q0 18 -8 18q-5 0 -11 -8t-6 -15q0 -23 16 -23q0 -6 -11 -24.5t-25.5 -39t-29 -36 t-22.5 -15.5q-3 0 -12 9t-17 9q-7 0 -16 -8t-18 -8t-17 14q-18 -7 -18 -35q0 -22 15 -22q3 0 13.5 2.5t10.5 -2.5q0 -1 -10.5 -7.5t-23.5 -20t-23.5 -35t-10.5 -53.5q0 -20 2 -20q1 1 4 8l5 16q7 26 15 27l6 11q18 0 18 -5q0 -7 -14.5 -13t-14.5 -22q0 -4 0.5 -7t0.5 -6 q0 -6 -9 -9.5t-40 -3.5q-13 0 -13 -18q0 -11 7.5 -22.5t18.5 -11.5q7 0 14.5 1t15.5 -4l-5 -10q-11 3 -20 3q-26 0 -39 -22.5t-10 -48.5q10 0 12.5 -4t1 -10t-4 -13.5t-2.5 -15.5q0 -28 -12 -36l-15 -10q-2 -2 2 -8.5t6 -9.5q8 -9 -3 -14l-11 -5l-52 -120l-16 -11 q-5 -3 -9 -2q-6 2 -18.5 -4t-29 -13.5t-35.5 -14t-39 -6.5q-11 0 -43 26q-1 1 -7 9.5t-14.5 19t-17.5 19t-17 8.5q-29 0 -51 16t-22 45q0 13 5 33l52 184q8 28 17.5 56t17.5 57q10 31 15.5 60.5t7.5 56.5q-32 47 -47 110l-11 5v31q0 6 -2 17t-5 22t-8 21t-11 14l-11 5 l-10 26q-6 17 -13 42t-18 58q0 2 -5 17t-10 33t-9 34t-3 20q31 108 164 149q39 11 76 11q140 0 186 -127q8 -22 11.5 -48.5t2.5 -57.5zM757 977q9 0 12 7q4 9 6.5 14.5t-7.5 5.5q-12 0 -12 -19q0 -5 1 -8zM599 417q-5 0 -5 1l2 2t3 -3z" glyph-name="FLW89" horiz-adv-x="1027" unicode="Y"/><glyph d="M703 -58l-110 -5q-18 38 -66 38q-32 0 -54 -22l-79 52q-1 1 -11 3.5t-10 7.5l-57 5l-24 -16q-10 -7 -25.5 -16.5t-37.5 -20.5q-15 -7 -29 -7q-17 0 -21 13q-9 2 -23 -6l-32 -18q-47 -26 -63 -26q-18 0 -23 24l-10 5q-3 2 -5 24l-2 17q-1 6 -1 13q0 101 100 208 q12 13 33 34t52 49q55 52 84 84q6 12 23.5 23.5t23.5 18.5l142 167q14 0 19 8t7 8l246 262q-8 20 -27 20q-14 0 -37 -8.5t-34 -8.5q-9 0 -13.5 -4t-8 -9.5t-7 -9.5t-11.5 -4q-7 0 -21.5 4t-31 9t-32.5 9t-26 4q-4 0 -12.5 -4t-15.5 -4t-11 4t-7 4q-6 0 -9 -4t-6 -9.5 t-7.5 -11t-13.5 -7.5l-16 -4q-11 -2 -32 3t-45 5l-10 10q-30 30 -36 39q-7 11 -7 30q0 26 9 53t12 35q13 31 34.5 48t56.5 17q6 0 12 -0.5t13 -1.5l141 -21l251 16q-1 0 2 -2.5t8 -2.5q13 0 37.5 4.5t36.5 4.5q4 0 14.5 -0.5t14.5 -0.5q9 0 17.5 0.5t16.5 1.5q3 -3 11.5 -7 t18.5 -11t17.5 -17.5t7.5 -25.5q0 -36 39 -54l11 -5q0 -5 6 -15.5t6 -20.5q0 -18 -9.5 -36.5t-9.5 -23.5q0 -9 7 -20t7 -19q0 -10 -5.5 -11.5t-5.5 -7.5l1 -9t2 -26q1 -9 -4 -16l-11 -10q0 -8 -9.5 -25t-20.5 -36.5t-20.5 -37t-9.5 -24.5q0 -18 13 -34q-2 -2 -9.5 -5.5 t-7.5 -8.5q0 -4 1 -7l-10 -16l-26 -15l1 -3.5t1 -2.5q0 -3 -4 -5t-4 -5l-172 -168l-6 -10q-1 -2 -5.5 -3.5t-4.5 -6.5h-26q5 -7 3 -17t-9 -15l-10 -5l-5 -11q-3 -5 -8 -8.5t-8 -0.5q-4 2 0 7t11 8l5 10q1 2 5 2t5 3q2 7 -3 12t-12 -6l-11 -6l-42 -31q-18 -13 -18 -25 q0 -25 70 -37q6 -1 33 -3.5t57.5 -4.5t57 -3.5t31.5 0.5l15 -16q2 -2 4 -2q5 0 15 -12t10 -28q0 -24 -22 -61l-17 -28q-12 -20 -25 -41.5t-30 -38.5t-39.5 -28t-54.5 -11q-21 0 -24 14zM923 722l2 6q0 2 -3 4q-3 1 -7.5 -0.5t-6 -3.5t1 -4t13.5 -2zM609 293q6 -10 16 -3.5 t10 13.5q0 5 -12 7q-16 1 -16 -10q0 -1 2 -7zM520 304q-8 2 -7.5 -3t5.5 -5q2 0 2 8zM677 262q-4 0 -4 1l1.5 1.5t2.5 -2.5zM499 236q5 0 5 2q0 8 -5.5 11.5t-10 3t-4.5 -4t11 -10.5q4 -4 4 -2zM247 10q20 0 32 21q-4 17 -19 10t-15 -20q0 -3 2 -11zM237 5q3 0 5 2 q-2 2 -5 6.5t-7 4.5q-1 0 -1 -1q-2 -9 8 -12zM220 -18l-9 -9t1 0t5 4t3 5z" glyph-name="FLW90" horiz-adv-x="1086" unicode="Z"/><glyph d="M528 444q-4 -5 -28.5 -36.5t-58.5 -75t-72.5 -91.5t-69.5 -87q4 -1 4 -8l-16 -16l1 -4t1 -5q0 -9 -10 -16.5t-8 -17.5q1 -13 14 -13q11 0 18 9l10 11q4 4 7 6t9 -1q22 17 49.5 46t60.5 70q31 39 54.5 71.5t39.5 58.5l16 26l11 5q8 4 14.5 22t14.5 38t19 36t27 16 q3 0 8 -8t11 -17.5t11.5 -17.5t8.5 -8q13 -4 30.5 -12t40.5 -20q3 -2 7 -10t8.5 -16.5t8.5 -15.5t7 -7v-38q0 -26 -7 -26l-52 -136q-7 -17 -7 -29q0 -5 7.5 -11t17.5 -13.5t19.5 -16.5t14.5 -20q-37 -4 -65 -26q-10 -8 -22 -22.5t-24.5 -30t-24.5 -29.5t-21 -21 q-26 -19 -63 -21l-5 -21q-8 0 -11.5 2.5t-2.5 2.5q-2 0 -7 -5q1 -1 1 -1.5t1 -1.5q-2 -2 -4 -2q-8 0 -3 5l-19 5q1 0 -3 -3t-7 -3t-8 6.5t-9.5 14.5t-7.5 15t-4 7l-21 5q-11 3 -18.5 16.5t-12 31.5t-8 38t-6.5 36q-3 0 -9.5 -4t-14 -9.5t-13 -10t-7.5 -4.5l-167 -141 q-126 34 -163 214q5 76 83 196q10 14 17.5 29.5t14.5 31.5l20 1l-4 25l26 42l23 -3q-4 7 13 34.5t40.5 59.5t46 59t29.5 33q6 0 17 3.5t24 7t26.5 7t23.5 3.5q9 0 18.5 9.5t18.5 9.5q12 0 28.5 -6.5t27.5 -6.5q4 0 4 -3t4 -3q8 0 19.5 1t19.5 -6l12 -25l45 -7l5 -10 q17 -36 17 -57q0 -39 -67 -69q-10 -5 -21 -10t-23 -11z" glyph-name="FLW97" horiz-adv-x="796" unicode="a"/><glyph d="M613 186l-24 -66l-343 -254q-20 -15 -56 -15q-24 0 -24 14q0 1 12 35q5 16 -3.5 22.5t-22.5 6.5l-37 11l-21 15q-4 0 -9.5 12.5t-11.5 27t-14.5 27t-18.5 12.5q-20 0 -20 41q0 11 1.5 32t1.5 32q0 5 -0.5 10t-1.5 10q50 203 190 453q125 222 213 306q0 6 -4 19t4 18l11 5 q12 26 38.5 43t60.5 27.5t72.5 14.5t74.5 4q31 0 50.5 -29t19.5 -62q0 -22 -7 -40q-26 -71 -58 -124.5t-68 -94.5q-14 -16 -34.5 -41.5t-49.5 -58.5l-10 -10q-9 -9 -9 -17q0 -16 12 -16q8 0 15.5 10.5t14.5 10.5q17 0 36 -5.5t36.5 -12t31.5 -13t20 -9.5q37 -17 55 -39.5 t18 -46.5q0 -20 -10 -40l-47 -100q-8 -19 -17.5 -38.5t-19.5 -39.5l-10 -16zM293 39q44 33 83 85q6 8 23 32.5t46 65.5l11 16q4 5 7 17t8 25q0 11 4 26t9.5 31t9.5 32.5t4 29.5t-8 19.5t-8 13.5q-53 -8 -102 -92q-61 -106 -84 -248q-4 -20 -4 -38q0 -11 1 -15z" glyph-name="FLW98" horiz-adv-x="774" unicode="b"/><glyph d="M640 285q33 -57 33 -98q0 -15 -5.5 -34t-20.5 -19q-8 0 -16.5 -9t-17 -19.5t-17.5 -20t-19 -10.5q-31 -41 -48 -63t-19 -24q-34 -39 -71.5 -62t-86.5 -18q-20 24 -56 24q-17 0 -38 -3l-11 -11q-2 -2 -9.5 -1.5t-8.5 0.5q-17 0 -76 22l-5 11q-7 16 -22 33l-25 28 q-20 23 -32 48t-14 55l-2 30q-1 19 -6 28.5t-11 16.5t-11 15.5t-5 25.5q0 15 2 35.5t0 34.5q4 7 12 14.5t19 17.5l87 117q23 31 51.5 58.5t55.5 54.5l16 10l10 21q7 0 11 4.5t7 10t7 10.5t12 7l21 5l16 16q15 0 23 13t24 13l10 10l48 6q33 4 54.5 -13t55.5 -40l10 -5l5 -10 q1 -1 5 -1.5t5 -0.5q7 0 22 12l10 10q5 4 12.5 4h12.5q3 0 8.5 2t8.5 2t11 -2l47 -21q7 -3 10 -1v-10l16 -15q0 -12 8.5 -29.5t8.5 -37.5q0 -14 -6.5 -32t-6.5 -25q0 -5 1 -7l-16 -16q-1 -1 -6.5 -7.5t-12.5 -14.5t-7 -9l-5 -11q-24 -12 -22 -12q-3 0 -9 2l-6 -11 q-5 1 -9.5 1.5t-8.5 0.5q-12 0 -19.5 -7.5t-14.5 -16.5t-15.5 -18t-21.5 -12l-21 -5l-15 10q-1 1 -6.5 0t-6.5 -1q-35 0 -35 45q0 9 5 24.5t11.5 32t11.5 31t5 22.5q0 9 -17.5 -8.5t-37.5 -43t-36.5 -48t-14.5 -22.5q-9 -4 -21 -32l-31 -73q-4 -9 -6 -17l-6 -23 q-4 -15 -5.5 -21.5t-2 -9.5t0 -6t0.5 -12q0 -13 -3.5 -39t-3.5 -39q0 -34 21 -34q12 0 26 7q125 75 251 210z" glyph-name="FLW99" horiz-adv-x="782" unicode="c"/><glyph d="M757 75l43 -32l-2 -26q0 1 -4 1.5t-5 0.5q-3 0 -6.5 -3.5t-10.5 -3.5l-5 -11q-8 -15 -33 -22l-17 -4q-8 -2 -8 -5q-18 -20 -52.5 -33.5t-62.5 -13.5q0 7 -3 5t-7 -2q-3 0 -5 2l-21 11l-16 10l-89 100q-35 -8 -70 -45q-11 -11 -27 -28t-39 -37q-7 -34 -61 -34 q-18 0 -38.5 16.5t-20.5 34.5q0 -1 -16.5 5.5t-36.5 14t-36.5 14t-15.5 6.5l-11 5q6 16 3.5 21.5t-8.5 7.5t-11.5 3t-5.5 8q0 10 5 28.5t5 28.5q0 25 -30 34l-17 5q-1 9 -1.5 17t-0.5 16v28q0 68 23 96q10 8 25.5 21t33.5 32l220 235l194 79q13 5 23 5q12 0 25 -6 t26.5 -13.5t26.5 -13t24 -3.5l32 52q-2 -3 13.5 31t36.5 79.5t42.5 89.5t30.5 62q37 68 79.5 112.5t95.5 65.5q13 5 21 5t13 -8t10 -17t9 -16.5t8 -7.5l18 2q0 -5 7 -7t7 -24q0 -4 3 -4q22 0 26 -11.5t4 -28.5q0 -9 -6.5 -24t-4.5 -27l-10 -5q-28 -173 -141 -361 q-9 -23 -28.5 -61t-50.5 -90q-54 -93 -73 -153l-26 -5q0 -14 2 -20q3 -6 -2 -17l-11 -26q1 1 -1.5 -7.5t-2.5 -17.5q0 -18 -9 -26.5t-20.5 -18.5t-22 -26.5t-13.5 -51.5l-1 -11q-2 -18 18 -18q38 0 63 36zM416 148l147 283q3 6 -7.5 22t-24.5 32t-25.5 28.5t-10.5 12.5 q-4 0 -8.5 -6t-7.5 -6l-10 -15q-35 -52 -67 -135q-3 -8 -15 -43.5t-34 -99.5q-10 -17 -10 -31l-10 -11l-21 -78q4 -12 18 -12q9 0 22 6t25.5 15t23.5 19.5t15 18.5z" glyph-name="FLW100" horiz-adv-x="1117" unicode="d"/><glyph d="M361 687l228 41q17 3 24 3q21 0 40.5 -9.5t34.5 -25.5t23.5 -36.5t8.5 -42.5q0 -13 -5 -31q-65 -210 -194 -298q-29 3 -71 -15q-45 -18 -70 -18q-8 0 -23.5 3.5t-24.5 3.5q-1 -9 -1.5 -18t-0.5 -17q0 -25 2 -49.5t7 -44t13 -32t19 -12.5q18 0 37 10.5t34 21.5l5 10 q6 10 18 10q8 0 17.5 -2.5t17.5 -2.5l10 16q2 5 21 5l11 37q4 12 22.5 27t29.5 15q9 0 9 -12q0 -7 -5.5 -13.5t-11.5 -12t-11.5 -10.5t-5.5 -9q0 -11 25 -11l5 10l10.5 8t15.5 0q5 -9 -10.5 -17.5t-35.5 -18.5t-37.5 -21t-17.5 -26q0 -5 12 -5q13 0 24.5 6t23 13t23 13 t24.5 6l10 16q11 0 11 11q11 0 12.5 -5t-4 -13t-14.5 -17.5t-19 -19.5q-7 -7 -18.5 -24t-25 -34.5t-28.5 -29.5t-29 -9q-4 -10 -18.5 -21.5t-34 -21.5t-41.5 -16.5t-41 -6.5q-15 0 -36 10.5t-38 18.5l-6 11l-8.5 3.5t-22.5 11.5q-5 -5 -14 -7t-18 -3.5t-16.5 -3.5t-9.5 -7 q-202 54 -202 223q0 18 3 39q52 128 108.5 223t118.5 156q58 58 111 67zM353 461q5 0 5 -5q0 -3 -1 -5l-4 -11q-1 -2 -7.5 -13t-8.5 -11q-4 0 -9.5 7t-9.5 7q-9 0 -9 -20t8 -28l10 -26q3 -8 2.5 -16t-0.5 -16q0 -23 19 -20q26 35 42 57.5t23 33.5q29 48 40 103l10 5 q0 7 6.5 25t14.5 38t14.5 38t6.5 26q0 20 -21 9q-39 -18 -69 -67.5t-62 -110.5zM636 241q-5 0 -5 5q5 9 5 4v-9zM678 173q-5 0 -5 1l2 2q1 2 3 -3zM296 74q10 -6 16 -6q4 0 4 4q0 9 -10 13t-10 -11zM296 47q5 0 5 5.5t-2.5 11t-5 9t-2.5 -1.5q0 -2 3.5 -7.5t3.5 -9.5 q0 -3 -2 -7z" glyph-name="FLW101" horiz-adv-x="740" unicode="e"/><glyph d="M612 499q-8 0 -4 -5.5t-1 -10.5l-21 -31l0.5 -3.5t0.5 -4.5q0 -10 -9 -23.5t-9 -21.5q0 -26 78 -26q4 0 15.5 0.5t15.5 0.5q25 0 25 -32q0 -8 0.5 -16.5t0.5 -15.5q0 -13 -4 -20.5t-18 -7.5q-20 0 -39.5 -11t-66.5 -20l-34 -7q-16 -3 -19 -7l-21 -10q-11 -5 -12.5 -13 t-8.5 -13l-10 -16q3 -16 -6.5 -34t-9.5 -29l-10 -5q-6 18 -17 18q-16 0 -16 -21q0 -8 6 -18q-8 -4 -6 -9q4 -11 10 -25q2 -8 -4 -13l-15 -16q-3 -3 0 -11q5 -8 10 -5q-2 -11 -6 -27t-11 -37q-5 -16 -14 -23.5t-18 -7.5q-5 0 -9.5 -1t-4.5 -7q0 -3 6 -21q2 -6 -7 -22.5 t-9 -36.5l-11 -10q0 -13 -8 -27.5t-17 -29t-17 -28.5t-8 -26q0 -5 -9 -8.5t-9 -11.5l-10 -5l-11 -16q2 -10 2.5 -18.5t1.5 -16.5l1 -29q0 -13 -6 -20.5t-14 -13.5t-14.5 -12t-6.5 -16l-11 -15l-36 -6l-16 -10q-18 -11 -28.5 -24t-19 -25.5t-18.5 -25t-27 -22.5l-19 -12 q-4 -2 -6.5 6t-2.5 18q0 21 6 48l57 257q53 241 53 351q14 17 16 50.5t3 59.5l29 57l-17 15q-47 41 -47 65q0 10 12.5 23.5t22.5 13.5q7 0 21.5 -4.5t24.5 -4.5q47 0 107 75q12 16 46 61t75.5 93t81.5 85.5t64 37.5q43 0 43 -113q0 -41 -6 -101zM314 49q3 -1 6 -1q6 0 4 5 q-2 6 -3.5 9.5t-7.5 3.5q-4 0 -1.5 -8t2.5 -9zM261 -354q-4 0 -4 1q0 2 1.5 1.5t2.5 -2.5zM162 -417q-14 -5 -14 -30q0 -20 7 -20q3 0 14.5 17.5t11.5 30.5l-8 22q-1 5 -5 -2t-6 -18z" glyph-name="FLW102" horiz-adv-x="723" unicode="f"/><glyph d="M280 -324q44 30 90.5 72.5t87.5 84.5q30 67 44.5 117.5t12.5 86.5q-5 5 -5 8q0 -1 2.5 2t2.5 11q-6 0 -5.5 6t-3.5 6q-8 0 -10 -9t-2.5 -20t-1.5 -20t-7 -9q-9 0 -22 10q-1 0 -32 -14q-6 -3 -15 -6t-9 6q0 3 4.5 9t9.5 13t8.5 14.5t2.5 13.5q8 32 24 32q8 0 18 -6l21 11 l12 3q7 2 7 4t8 2t12 14t13 14q83 57 147 178q21 40 99 225q15 18 15 33q0 21 -24 21q-9 0 -19.5 -6.5t-20 -16t-18 -21t-12.5 -21.5l-10 -5q-8 -16 -32.5 -46.5t-52 -65t-51.5 -68.5t-32 -56q-4 -1 -10 9q-6 9 -10.5 5.5t-8.5 -11t-7 -15.5t-5 -9l10 -21q2 -5 -2 -12 t-9 -15t-10 -17t-5 -18h-37q0 -4 -3.5 -7.5t-3.5 -4.5q0 -2 2 -4l10 -10q7 -7 7 -16q0 -19 -19 -37.5t-45 -51.5l-21 -16q-12 -9 -24 -9q-20 0 -39.5 24t-35 57t-26 66t-11.5 51q7 38 26 57q0 4 6.5 15.5t14.5 25.5t14.5 28.5t6.5 24.5l10 16l37 42q3 4 8.5 13.5t11.5 20 t12 20.5t10 14l68 63q3 3 5 4t2 6q0 1 -2 5q-66 21 -66 57q0 28 40 53l199 11q0 4 13 9.5t29.5 10.5t33 8.5t24.5 3.5q12 0 13 -2.5t5 -2.5t3.5 2.5t6.5 2.5q10 0 19.5 -7.5t17.5 -18.5t14 -22.5t9 -20.5q-4 -51 36 -51q17 0 32 4q0 6 6.5 8t15.5 1t19 -2.5t17 -1.5l5 -10 q34 -6 58.5 -43t24.5 -95q0 -32 -10 -64t-27 -70q-13 -28 -25.5 -57t-25.5 -58l-89 -210q-2 -5 -9.5 -11.5t-7.5 -12.5q0 1 -2 -11t-7 -17l-11 -5q-4 -2 -13 -26t-18 -42l-63 -27q-1 -4 -9.5 -10t-17.5 -12t-14.5 -10t-0.5 -4q3 -23 -19 -44t-44 -50l-10 -6q-12 26 -18 26 q-5 0 -6 -12l-4 -28q-4 -26 -7.5 -35t-8.5 -9t-10.5 6.5t-12.5 6.5q-6 0 -16 -8.5t-24 -8.5q-23 0 -23 -50q0 -13 -5.5 -18t-13.5 -7t-16 -4.5t-13 -10.5t-10.5 -17.5t-15.5 -13.5l-11 -5l-120 -84l-5 11q-42 0 -42 -21q-26 26 -46 26q-10 0 -23.5 -11t-29.5 -11 q-22 0 -42.5 13.5t-36.5 36t-25.5 53t-9.5 64.5q0 19 7 52.5t23 65t43 52.5t67 15q22 3 43.5 -8t38.5 -29.5t27.5 -41t10.5 -42.5z" glyph-name="FLW103" unicode="g"/><glyph d="M361 176l-188 -210q-19 -21 -44 -21q-18 0 -37 14t-35 34.5t-26.5 43t-9.5 39.5q1 26 9.5 57t20 63.5t24.5 65t24 60.5q6 7 12.5 22.5t13 32t11 30t5.5 15.5q7 0 10.5 16.5t10.5 20.5l5 20q1 7 4 16.5t7 20.5l58 94q42 69 74 230q8 44 15 75t11 48q9 34 19.5 63.5 t23.5 54.5q58 115 181 142q9 -2 25.5 -7t33.5 -11t29.5 -12.5t12.5 -11.5q0 -4 -1 -5l10 -27q-1 1 -3.5 -3t-2.5 -5q0 -4 1 -12.5t1 -12.5q-1 -2 -6 -14t-11 -30.5t-6 -30.5q0 -11 -7.5 -25.5t-7.5 -33.5l-10 -11q-16 -18 -36.5 -61t-42.5 -110q-10 -29 -23.5 -72.5 t-33.5 -101.5q-2 -4 -14 -30.5t-28.5 -63t-33 -76.5t-27.5 -70q1 -1 3 -1q2 1 4.5 4t6.5 7l89 104l10 6q22 14 54 44q12 12 24 24.5t25 24.5q36 33 75 45.5t79 12.5q27 0 47.5 -22.5t20.5 -50.5q0 -23 -9.5 -48t-11.5 -41q-27 -27 -27 -55q0 -5 1 -8l-11 -15q-6 -7 -8 -24.5 t-4.5 -37t-7 -38.5t-15.5 -30q8 8 18 19.5t21 21.5t22 17t22 7q17 0 27.5 -13.5t17 -34.5t9 -45.5t2.5 -46.5q0 -32 -6 -66q-8 -53 -26 -53q-3 0 -8.5 7.5t-12 17t-13 17t-11.5 7.5q-4 0 -24.5 -19.5t-44.5 -42.5t-45 -42.5t-27 -19.5q-4 0 -6 1l-16 -16l-31 -16l-16 -10 q-14 -9 -31 -9h-28q-7 0 -17 -5t-19.5 -10.5t-19 -10.5t-17.5 -5q-28 0 -47.5 17t-19.5 45q0 13 3.5 31t9 35t10.5 31t8 21q10 21 17.5 42t14.5 43q3 8 1 19q-1 13 -11 13q-11 0 -29.5 -17.5t-39.5 -40.5z" glyph-name="FLW104" horiz-adv-x="883" unicode="h"/><glyph d="M552 1151q20 -4 41 -8t38 -12t27.5 -21.5t10.5 -36.5q0 -7 -3.5 -20.5t-7.5 -27t-7.5 -25.5t-4.5 -17l-4 -4q-22 -22 -22 -33l-10 -10l-11 -16q-17 -26 -34 -51t-51 -25q-12 0 -24 2t-27 2q-23 -2 -26 -12l-11 -5q-19 -8 -28 -8q-37 0 -37 51q0 36 35 123q55 139 156 154 zM599 329l-141 -241l-236 -168q-61 7 -99 52q-34 40 -42 106q5 17 5 20q0 12 -11 12q-10 0 -19.5 -8.5t-11.5 -18.5l-11 -5q-1 0 -3.5 7.5t-4.5 19t-3.5 24t-1.5 21.5q0 86 34 85l42 44l42 44q49 52 74 95q15 26 29.5 51t30.5 51q18 29 38 51.5t39 38.5q13 10 31 20.5 t36 12.5q21 3 39.5 -6t33 -25.5t23 -39.5t8.5 -50q-8 -43 -30 -89q-10 -21 -20.5 -40t-23 -42.5t-28 -54t-36.5 -72.5q-9 -22 -9 -44q0 -15 6 -29zM232 -64q-5 0 -5 -1l2 -2q1 -1 3 3z" glyph-name="FLW105" horiz-adv-x="689" unicode="i"/><glyph d="M991 1114v-142q0 -32 -30 -49.5t-75 -23.5l-37 -5q-3 0 -9 -9.5t-14 -20.5t-19 -20t-24 -9q-22 0 -34 26.5t-12 48.5q0 9 3.5 27t3.5 27q0 107 86 163q16 11 36 18t39 7h12q42 0 74 -38zM336 203l220 178q33 27 54 66q4 7 12.5 26.5t21.5 51.5q41 99 111 133q12 3 27 3 q29 0 50.5 -14t21.5 -41q-10 0 -9.5 -11.5t-5.5 -14.5q-7 -124 -49 -255t-120 -265q-64 -111 -128 -193l-101 -130q1 1 -3 5t-4 5q0 8 -5 10.5t-10 2.5q-7 0 -11 -11.5t-8.5 -25t-11.5 -25.5t-20 -13l-6 -11q-1 -2 -6.5 -2h-6.5q-11 0 -22 13t-19 13q2 0 -3.5 -5t-12.5 -11 t-13 -11.5t-6 -6.5q-8 0 -21 -6t-19 -6q-8 0 -27.5 5t-26.5 7l-5 -21q-11 0 -11 -11q-6 0 -20 8q-7 2 -10 -1.5t-6.5 -8.5t-9 -9.5t-18.5 -4.5q-19 0 -19 16q-3 -1 -20.5 -7.5t-25.5 -6.5q-14 0 -14 33q0 23 1.5 39t3.5 26q3 16 13 26l15 16l21 26l3.5 -1t2.5 -1q3 0 5 3.5 t5 3.5l5 11q7 16 42 16q8 0 21 -2t26 -5.5t23.5 -8.5t13.5 -11l5 -10l16 -16q9 -9 19 -9q15 0 31.5 21.5t33 55.5t31.5 77t27 86t20.5 81.5t10.5 64.5l-202 -103q0 175 84 175q17 0 39 -9zM666 496q-5 0 -5 -1t1.5 -1.5t3.5 2.5zM446 -289q-5 0 -5 1q0 2 1.5 2t3.5 -3z M441 -294q-4 0 -4 1q0 2 1.5 1.5t2.5 -2.5zM74 -399q-5 0 -5 1q0 2 1.5 2t3.5 -3z" glyph-name="FLW106" horiz-adv-x="1011" unicode="j"/><glyph d="M419 406l246 241q5 5 16 8.5t24.5 6.5t26.5 4.5t22 1.5q55 0 76 -20.5t21 -61.5q0 -43 -13 -60l-11 -26q-2 -7 -1 -13q2 -19 3 -25.5t-7 -8.5l-5 -21q-1 -7 -11 -12.5t-10 -18.5l-11 -5q-9 -4 -23.5 -16t-32 -25t-36 -24t-33.5 -14l-5 -10q-8 0 -23.5 11.5t-25.5 11.5 q-14 0 -14 -32q0 -24 16.5 -56.5t35.5 -71.5l220 137q14 8 19 8q9 0 9 -13q0 -6 -3.5 -18t-9 -25t-11 -24.5t-9.5 -16.5l15 -21q-12 -7 -12 -28q0 -11 3 -22t3 -19q0 -11 -11.5 -19.5t-27.5 -15.5t-31.5 -13t-22.5 -14q11 -5 11 -21q0 -4 -0.5 -13.5t-0.5 -12.5h-21 q-46 0 -46 -21q0 -14 2.5 -12.5t-11.5 1.5q-17 0 -17 -20q0 -17 -5 -22.5t-12.5 -7.5t-15.5 -3.5t-15 -9.5l-10 -15q-3 -5 -6 -5h-10q0 -2 -8.5 -8t-21 -12t-26.5 -11t-25 -5q-20 0 -37 11.5t-31 31t-26.5 45t-23.5 52.5l-37 89q-8 18 -21 18q-12 0 -26 -12t-28.5 -30 t-27.5 -38.5t-22 -36.5l-11 -16l1 -7q0 -6 -7.5 -14t-9.5 -10l-31 -6q-7 -8 -23 -15.5t-24 -7.5q-22 0 -44.5 14.5t-41 36t-30 46t-11.5 44.5q0 56 18 122t54 148q10 22 21.5 56t28.5 80q4 9 9 22t12 30l183 456q52 132 115 183q13 10 30 18t33 8q17 0 31.5 -6.5t23.5 -15.5 l17 -16q8 -8 22 -14l11 -6q12 -8 12 -81q0 -43 -16.5 -89.5t-39.5 -99.5q-16 -38 -33.5 -76.5t-32.5 -77.5q-12 -32 -31 -73.5t-36 -77.5q-39 -83 -39 -129v-9t1 -9zM806 239q6 -2 10 -2q15 0 15 10q0 3 -4 7q-22 0 -22 -9q0 -4 1 -6zM801 155q11 0 14 3.5t2 7t-5.5 7 t-8.5 3.5q-5 0 -5 -7q0 -5 3 -14z" glyph-name="FLW107" horiz-adv-x="908" unicode="k"/><glyph d="M397 166l-5 -151l-179 -147q-28 0 -54.5 11t-46.5 35q-7 8 -20 22.5t-25.5 29.5t-22 28.5t-9.5 20.5l-10 10q-5 5 -5 20t15 79q1 3 0 6l11 15l2.5 6.5t6 14.5t7.5 14.5t5 6.5l10 16q10 16 10 43.5t6 40.5l309 670q27 58 70 98q50 46 108 49q6 -3 49 -12q37 -7 54.5 -41 t17.5 -78q0 -47 -16 -63q0 1 -2.5 -3t-5.5 -9.5t-5.5 -11t-2.5 -7.5l-5 -8q-7 -11 -13.5 -25t-11.5 -33q-2 -6 -3 -17.5t-3.5 -23t-7 -21.5t-13.5 -14l-21 -57q-5 -13 -13 -27t-19 -30l-20 -26l-20 -26q-47 -67 -44 -122l-10 -16q-4 -5 -7.5 -16.5t-8.5 -24.5l-10 -16l-9 2 q-12 0 -12.5 -10t-0.5 -18q0 -12 -14 -19t-14 -11q0 -2 4 -8t4 -8q0 -1 -5 -1l-16 -42q-17 0 -17 -6q0 -4 1 -5l-10 -26q-4 -11 0.5 -19t6.5 -21q1 -12 -7 -12l-6 -11q-11 -20 -11 -27q0 -6 6 -6q20 0 58 38z" glyph-name="FLW108" horiz-adv-x="721" unicode="l"/><glyph d="M582 418l241 261h84q19 0 37 -15t23 -33q2 -9 -4.5 -32t-15.5 -50.5t-18 -54t-12 -40.5q-4 -4 -7 -11l-8 -15l-11 -16q-3 -4 -7 -13.5t-7 -20.5t-5.5 -20.5t-2.5 -14.5q0 -13 10 -13q17 0 38 25l246 288l63 10q7 1 12 1.5t9 0.5q44 0 77 -26.5t33 -69.5q0 -1 -3.5 -16 t-9 -33.5t-12 -35t-12.5 -20.5l-10 -5q-6 -3 -6 -10q0 -4 1 -6l-32 -42q-4 -5 -4 -12t-6 -14q-5 -8 -17 -27t-25 -43t-22.5 -48.5t-9.5 -43.5l-10 -11q-7 -7 -15 -27t-8 -29q0 -14 11 -14q8 0 25.5 15t38.5 15q37 0 48.5 -9.5t3.5 -34.5l-292 -183q-16 -10 -32.5 1.5 t-30.5 29.5t-23.5 34.5l-9.5 16.5l-11 19q-14 23 -14 46q0 6 -1.5 20.5t-4 27.5t-7.5 20.5t-13 -0.5l-230 -209q-17 -16 -35 -16q-20 0 -38.5 16t-32.5 39t-22 48.5t-8 43.5q0 13 6 31.5t14 37.5t14 36t6 27q0 15 -9 25q-25 -31 -63 -76t-91 -101q-49 -52 -98.5 -78 t-92.5 -26q-15 0 -32 3q0 3 -3.5 5t-3.5 5l2 6l-10 16l-11 5q-3 2 -5 8.5t-4.5 14t-6.5 13.5t-10 6l-9 11q-51 59 -51 111q0 27 18 50l387 466q13 15 24 22.5t25.5 11t36 4.5t56.5 4q9 -4 23 -10t26 -14.5t18.5 -20t0.5 -28.5l-37 -105q-2 -4 -11 -19t-10 -17l-10 -11 q-31 -34 -31 -71q0 -14 8 -14q13 0 38 28z" glyph-name="FLW109" horiz-adv-x="1377" unicode="m"/><glyph d="M822 -5v-1q-1 -1 -1 -2q0 2 1 2v1zM822 -4q0 8 -7 8q-8 0 -21 -8t-26 -17.5t-22 -18t-9 -9.5l-26 -11q-2 -2 -8 0q-3 0 -3 -5l-15 -16q-11 -11 -14.5 -21.5t-5 -18.5t-4.5 -13t-12 -5q-10 0 -18.5 10.5t-16.5 25.5t-17.5 31t-21.5 28l-16 15q-2 2 -2 4t2 5t2 4 q0 -1 -2 5.5t-4.5 14.5t-4.5 15t-2 9q0 20 12 43t12 43q0 8 -3 15l11 10q27 25 27 56q0 18 -13 18t-35 -22l-257 -261q-3 -4 -21 -16.5t-33 -12.5q8 0 -5 3t-31 6.5t-34.5 7.5t-16.5 6q-8 0 -15.5 14t-14.5 30.5t-12.5 30.5t-9.5 14l-5 11q-6 14 -6 21q0 26 -21 26l-10 -11 q-19 -22 -31 -22q-16 0 -16 33q0 8 2 21.5t6 26.5t10 23.5t13 12.5l382 487q9 2 29 13.5t39 11.5q23 0 47 -9.5t40 -20.5q48 -32 44 -74q-19 -56 -36.5 -98.5t-33.5 -71.5q-19 -31 -34 -45l-11 -10l-2 -7.5t-6 -20.5l-3 -11q-1 -7 5 -7q8 0 26.5 15.5t31.5 30.5l283 309 q20 21 88 21q26 0 52 -5t46 -16.5t31 -29t8 -43.5q-4 -5 -9.5 -18.5t-10 -27.5t-8 -25t-3.5 -13q-8 0 -23.5 -25t-32.5 -58t-32.5 -66t-21.5 -50l-26 -63l-11 -16l-4 -18q1 7 9.5 13.5t20 11t23 7t19.5 2.5q62 0 73 -83q0 -2 -5.5 -7t-12.5 -10.5t-12.5 -10l-5.5 -4.5 l-16 -16q-6 1 -11.5 1.5t-10.5 0.5q-29 0 -49 -19.5t-39 -39.5q0 -12 -8 -14q-8 -3 -13 8q-26 -8 -35 -38zM993 155q-14 0 -14 -16q0 -11 6 -13q5 -2 17 4.5t12 19.5q0 20 -12 20q-4 0 -9 -15z" glyph-name="FLW110" horiz-adv-x="1098" unicode="n"/><glyph d="M869 496l-47 -157q-18 -13 -35.5 -34.5t-34.5 -46t-33 -49.5t-31 -47q-82 -122 -154 -153l-26 -11q-1 0 -3 0.5l-2 0.5q-5 0 -10 -14t-12 -14q-15 0 -37 12q-4 0 -11.5 -8.5t-16.5 -18t-18 -18t-16 -8.5h-183l-79 89q2 -1 -3.5 12.5t-14.5 29.5t-19.5 27t-19.5 5l-16 -11 l-21 -5q-6 30 -6 54q0 67 58 119q20 18 33 29t21.5 20t14 19t10.5 26l21 31q113 168 224 223q50 23 106 29q3 0 13 -6t22 -12.5t23 -12t15 -5.5q8 0 16 15t14 23q27 38 79 38q34 0 62 -12.5t48 -34.5t30 -51.5t8 -62.5q4 -10 31 -10zM476 213l42 100q35 84 58 167 q10 11 10 35q0 26 -11 26q-7 0 -11 -9t-5.5 -20t-2 -20.5t-1.5 -11.5l-11 -5q-6 11 -11 11t-10 -5t-10 -13t-11 -14l-10 -11q-4 -4 -11.5 -6.5t-14.5 -5t-12 -7t-5 -13.5q0 -3 1 -4l-10 -5q0 -14 4 -16t-4 -16l-11 -16q-1 -2 -3.5 -1t-2.5 -4q0 -4 1 -10.5t1 -10.5 q0 -8 -6.5 -15.5t-15 -15t-15 -14t-6.5 -12.5l-10 5q-6 2 -8 2q-14 0 -15.5 -6.5t2.5 -16t10 -19t6 -15.5q0 -19 -8.5 -32.5t-19.5 -26t-19.5 -28.5t-8.5 -42q0 -48 34 -41q35 29 73 72.5t58 89.5zM52 140q-20 0 -13 -22q1 -7 7 -9q2 -1 14 7.5t12 18.5q0 20 -11 20 q-5 0 -9 -15z" glyph-name="FLW111" horiz-adv-x="889" unicode="o"/><glyph d="M747 719q42 4 65 -28q21 -29 21 -72q0 1 -0.5 -5.5t-1.5 -20.5q-4 -64 21 -64q8 0 20.5 7t26 17.5t26.5 21.5t23 19q80 65 123 65q9 0 19 -1t19 -1q29 0 44.5 -16.5t24.5 -42.5t14 -59.5t12 -66.5q4 -13 14 -9l11 5l5 10q-2 -3 1.5 -19.5t3.5 -26.5v-28q-1 -10 -1 -17 v-12v-16q0 -11 -7.5 -22t-17.5 -22t-20 -21t-16 -18q-28 -43 -58 -70l-11 -10q-35 -31 -71 -79q-31 -43 -63 -86t-80 -83q-61 -52 -99 -52q-6 0 -20 6t-29 13t-27 13t-14 6l-5 10l-11 5l-10 16l-5 11q-2 5 -9 10t-7 16l-10 5q-8 20 -16 20q-5 0 -12.5 -10.5t-15.5 -23 t-13.5 -23l-5.5 -10.5q-13 -20 -26 -39.5t-26 -39.5q-30 -45 -43 -83q8 0 7 -11t-1 -16q-23 -5 -33 -27t-17.5 -49t-17.5 -52t-32 -34q0 -10 -4.5 -22t-10 -22.5t-10.5 -17t-6 -5.5q-6 5 -11 16t-6 11q-5 0 -19.5 -24t-32.5 -52.5t-36 -52.5t-29 -24q-17 0 -34 20l16 16 l-1 3.5t-1 2.5q0 3 3.5 5t3.5 5q7 10 8 17.5t-8 7.5t-17 -8t-13.5 -20t-8.5 -25.5t-3 -24.5q0 -15 6 -36l-18 -5q-50 -14 -83 -34q-17 -9 -25 -25.5t-14 -16.5q-5 0 -9 9t-7 21t-4.5 24.5t-1.5 19.5q0 12 5 28t5 26l21 63q2 6 9.5 12t7.5 14q0 7 -1 10q17 25 36.5 63.5 t39.5 89.5q44 115 70 156q23 38 46 85.5t46 104.5q19 50 38 99t38 99q5 6 6.5 13.5t3.5 12.5l11 16q4 6 8.5 23t11.5 24q-73 91 -73 156q0 23 14 45t39 16l17 -13q-4 -40 13 -40q15 0 36 15.5t43 39t44.5 49.5t40.5 47q75 86 151 93zM909 447q-35 -23 -71 -61t-72 -91 q-15 -22 -29.5 -44.5t-29.5 -44.5q-33 -51 -65 -84q8 -3 17 -3q22 0 52 10.5t58.5 27t50 35t26.5 35.5l6 21l21 31q5 7 8 23.5t13 23.5l15 37q1 4 0 8q1 -1 5 7t9 20t9 25t4 20t-5 9q-7 2 -22 -5zM396 -370q14 4 21 51q1 11 2 23.5t-5 12.5q-4 0 -11 -12t-13.5 -27 t-11.5 -30t-5 -21q0 -7 5 -7t18 10zM318 -529v-8q-8 0 -4 2q1 1 2 3t2 3zM313 -543q-5 0 -5 1q0 2 2 2t3 -3z" glyph-name="FLW112" horiz-adv-x="1259" unicode="p"/><glyph d="M266 -413q14 -23 14 -37q0 -4 -3 -6l155 -50v76q0 15 9 29t23 25.5t30.5 17.5t31.5 4q23 3 43 -6t34.5 -26t23 -39.5t8.5 -45.5q0 -39 -25.5 -72t-63.5 -33q-12 0 -23 6.5t-18 6.5q-16 0 -36 -16q0 13 -33 13l-4 -7l-300 67l-65 62q84 84 161 240q78 161 74 241 q-5 5 -5 8q0 -1 2.5 1.5t2.5 11.5q-4 0 -4 3l-1 5q0 2 -2 4q-1 1 -8 -1q-6 -7 -6 -25q0 -21 -1.5 -26.5t-7.5 -5.5q-9 0 -22 10q-1 0 -32 -14q-6 -3 -15 -6t-9 6q0 3 4.5 9t9.5 13t8.5 14.5t2.5 13.5q8 32 24 32q7 0 18 -6l21 11l12 3q8 2 8 4t7 2q8 0 12 14t13 14 q83 57 147 178q21 40 99 225q15 18 15 33q0 21 -24 21q-9 0 -19.5 -6.5t-20 -16t-18 -21t-12.5 -21.5l-10 -5q-8 -16 -32.5 -46.5t-52 -65t-52 -68.5t-31.5 -56q-4 -1 -10 9q-6 9 -10.5 5.5t-8.5 -11t-7 -15.5t-5 -9l10 -21q2 -5 -2 -12t-9 -15t-10 -17t-5 -18h-37 q0 -4 -3.5 -7.5t-3.5 -4.5q0 -2 2 -4l10 -10q7 -7 7 -16q0 -19 -19 -37.5t-45 -51.5l-21 -16q-12 -9 -24 -9q-20 0 -38.5 22.5t-34 54t-26 65t-13.5 56.5q7 38 26 57q0 4 6.5 15.5t14.5 25.5t14.5 28.5t6.5 24.5l10 16l37 42q3 4 8.5 13.5t11.5 20t11.5 20.5t10.5 14l68 63 q6 6 6 10t-1 5q-66 21 -66 57q0 28 40 53l199 11q0 5 12.5 10.5t29.5 10t33.5 8t24.5 3.5h9t5 -3q0 -2 4 -2t4 1q0 3 0.5 3.5t5.5 0.5q16 0 31.5 -19.5t28.5 -49.5q-5 -51 36 -51q17 0 32 4q0 6 6.5 8t15.5 1t19 -2.5t17 -1.5l5 -10q34 -6 58.5 -43t24.5 -95 q0 -32 -10.5 -64t-26.5 -70q-13 -28 -25.5 -57t-25.5 -58l-89 -210q-2 -5 -9.5 -11.5t-7.5 -12.5q0 1 -2.5 -11.5t-6.5 -16.5l-11 -5q-5 -2 -13.5 -26t-17.5 -42l-63 -27q-1 -4 -9.5 -10t-17.5 -12t-14.5 -10t-0.5 -4q3 -23 -3.5 -36t-27.5 -42h-24q-6 -9 -14 -11.5 t-15.5 -6.5t-13.5 -14t-7 -33q-3 -11 -6.5 -13.5t-8.5 -0.5q-2 -2 -9 -8t-7 -2q0 2 -4.5 -9.5t-21.5 -38.5q-7 -7 -7 -4q-1 5 1.5 9.5t1 4t-10 -7t-32.5 -23.5zM272 -389q0 -3 4.5 12t10.5 36q-15 -7 -15 -48z" glyph-name="FLW113" horiz-adv-x="846" unicode="q"/><glyph d="M732 504l-73 -157q-6 -3 -11 -3q-9 0 -24 11t-21 11q-7 0 -12 -4.5t-16 -4.5l-5 11q-9 2 -31 -5t-33 -7q-31 0 -31 57q0 2 0.5 9.5t0.5 9.5q0 26 -14 26q-8 0 -17.5 -13.5t-19 -33.5t-19 -42t-15.5 -39l-27 -69q-7 -17 -16 -33t-14 -33t-12.5 -37t-24.5 -40 q-9 -11 -21.5 -24t-23.5 -27t-18.5 -28.5t-7.5 -27.5t9 -26q7 -7 9 -14t-15 -7q0 -9 -2.5 -8t-6.5 6t-9.5 10.5t-11.5 5.5q-9 0 -15.5 10t-8.5 10q-3 1 -14 -13l-31 -41q20 0 36 -10t1 -22l-6 11q-24 -3 -42 -3q-49 0 -69.5 24t-29.5 73q0 64 75 175q17 24 30 55 q0 7 3.5 10.5t3.5 6.5t-2 9l10 16q2 3 9.5 11.5t7.5 13.5q0 4 -1 7l11 15q-10 6 -21 19t-20 28.5t-14.5 31t-5.5 27.5q0 14 8 20l32 26q0 -4 4 -1t9.5 9t11 12.5t8.5 9.5l29 31q8 8 14.5 15t12.5 13l52 52l11 6q13 7 23 16t20.5 16.5t23.5 12t32 2.5l11 -16l10 -5 q5 -3 12.5 -11.5t16 -17.5t17.5 -16.5t17 -7.5q13 0 30.5 12.5t35.5 27t36 27t34 12.5q15 4 34 4q95 0 95 -69q0 -19 -8 -40l-11 -26q-1 -2 0.5 -7t1.5 -7q0 -4 -1.5 -11.5t-1.5 -11.5q0 -9 6 -15zM104 -46q-6 0 -4 -1t4 1zM72 -88q-5 0 -5 1t1.5 1.5t3.5 -2.5z" glyph-name="FLW114" horiz-adv-x="766" unicode="r"/><glyph d="M303 249l105 141q38 34 67 87.5t55 101.5q66 122 161 151q18 5 37 5q31 0 52.5 -16t21.5 -47q0 -3 -7 -11t-16 -16.5t-16 -16t-7 -10.5q0 -10 7.5 -12t14.5 -2l-21 -26l-3 1t-2 1q-1 0 -1 -2q0 2 3 -27q2 -11 -3 -24t-11.5 -26.5t-12 -26t-5.5 -21.5v-142 q0 -17 8.5 -39.5t27.5 -22.5q8 0 29 23l15 15q6 7 11 7q9 0 9 -21q0 -26 -12 -65q-9 -32 -22.5 -53t-26.5 -36.5t-22.5 -27.5t-11.5 -26l-10 -5q1 -8 -4.5 -24t-15 -32.5t-23 -28.5t-27.5 -12q-6 0 -4 8q4 3 6 12t5 9v31l-7.5 -12.5t-17.5 -27.5t-21 -27t-17 -12t-20 8.5 t-22 8.5q-11 0 -16 -12t-10 -27t-10 -28.5t-16 -16.5l-58 -16q-15 -4 -40.5 2.5t-50 20t-43 31t-18.5 35.5q-5 21 -23 42.5t-38 21.5q-9 0 -16.5 -7.5t-15.5 -18t-18.5 -22.5t-24.5 -21l-104 -63l-6 -10q-21 4 -21 17q0 10 13.5 33t33 49.5t41 51t38.5 37.5l11 5q0 11 15 26 zM460 259l-99 -120q-14 -17 0.5 -24t32.5 -7q48 0 67 23t19 66v29q0 22 -4 34t-16 -1z" glyph-name="FLW115" horiz-adv-x="842" unicode="s"/><glyph d="M641 553l52 16l27 -64q-8 -2 -18 -6.5t-23 -9.5l-102 -46q-15 -7 -31 -13.5t-16 -10.5q0 -7 -1 -9l-8 -16q-7 -15 -11 -10.5t-11 23.5l-10 5l-5 -10l10 -37l-3.5 -10.5t-9.5 -29.5q-5 -12 -8.5 -16.5t-9.5 14.5l-11 5q-17 8 -26.5 4t-9.5 -18q0 -26 19 -26q7 0 12 4 q8 -3 8 -9q0 -13 -10.5 -30.5t-20.5 -17.5q-6 0 -18 2.5t-22 1.5q2 -7 10 -21.5t8 -21.5l-7 -12q-7 -13 -9.5 -21.5t-2.5 -15.5q0 -8 1.5 -17t1.5 -23q0 -31 -44 -93l-26 -36q-2 -2 -2 -4t1.5 -3.5l1.5 -1.5q-2 -2 -6 -2q0 -26 11 -31q13 0 11 -8t-13 -21t-29 -30.5 t-37 -35.5l-11 -5q-17 -8 -32 -18t-32 -10q-13 0 -26.5 10t-24.5 25.5t-17.5 34t-6.5 36.5q0 33 8 62t8 43q0 3 -1.5 8.5t-1.5 8.5q0 7 6 10q0 3 1.5 18.5t4.5 35.5t7 24q8 44 23 72t22 64q0 1 7.5 16.5t16 35t15.5 37.5t7 23q0 16 -9.5 16.5t-20.5 0.5q-32 0 -97 55 q-44 36 -53 36l-3.5 -4t-8 -8t-8 -4t-3.5 7q0 6 16 17t38 21.5t43.5 18t33.5 7.5q10 0 10 -8q3 -1 10.5 -0.5t13.5 0.5t8 -2.5t-5 -9.5q-1 -1 2 -1q12 0 30 3t35.5 8t32 12.5t19.5 15.5l157 283q21 7 45 7q52 0 86.5 -37t34.5 -89q0 -41 -25 -75q0 -7 -10 -23.5t-10 -30.5 q0 -23 14.5 -32.5t37.5 -2.5zM306 250q10 0 13 4t1 9t-6 9t-7 4q-5 0 -5 -7q0 -8 4 -19zM264 -17q10 -10 15 -10q8 0 11 12.5t5 23.5l11 5q33 56 33 80q0 15 -14 15q3 0 -7.5 -16t-24.5 -37t-26.5 -41.5t-12.5 -29.5q0 -3 4 -3q3 0 6 1z" glyph-name="FLW116" horiz-adv-x="736" unicode="t"/><glyph d="M434 293l246 314l99 47q18 8 32 8q19 0 35.5 -11t29 -29t19.5 -40.5t7 -46.5q0 -31 -20 -76q-12 -27 -32 -66.5t-39 -83t-32.5 -86.5t-13.5 -76q0 -29 9 -48q31 52 75 52q19 0 30 -12q9 -12 -5 -24l-11 -10l-5 -11q-9 -3 -19.5 -13t-22 -22t-23.5 -21.5t-24 -11.5 q0 -3 -18 -9.5t-24 -6.5l-10 -10q-8 3 -12.5 -5.5t-8 -20t-8 -21t-13.5 -9.5q-4 0 -11.5 -1t-8.5 -1t-10 6q-3 1 -7 0l-31 -11l-11 -10l-10 -6q-9 -5 -20 -5q-35 0 -52 16t-17 63q-6 0 -6.5 7.5t1 18.5t3.5 23.5t2 23.5v100q10 10 10 52q-18 -13 -41.5 -35.5t-49.5 -55.5 q-2 -3 -14.5 -21t-28 -37.5t-30.5 -35.5t-21 -16q-8 0 -14 12q-5 -5 -5 -9q0 -1 2.5 -6t2.5 -11q-9 -4 -36 -31l-16 -11q-10 -7 -26 -7q-5 0 -11 2l-21 -16l-10 -15q-8 -13 -24 -14q-17 -2 -28 3l-6 -10q-8 -14 -14 -7q-8 8 -8 13t8.5 14.5t19 21t19 22.5t8.5 19q0 10 -6 10 q-42 0 -69 -64q-4 -12 -8 -12l-7 19t-16.5 42.5t-19.5 44t-17 23.5q0 40 11 86t33 92q20 40 41 81t41 82q7 11 17 28t23 40q32 54 23 68l-5 10q-43 0 -53 -10q-18 35 -18 58q0 19 12 30.5t30 19t39.5 14t41.5 14.5l26 10l136 -10q-1 0 1.5 -1.5t3.5 -2.5l10 -3q14 -5 11 -14 l16 -10q17 -10 17 -33t-12.5 -50.5t-20.5 -53.5l-10 -5l-21 -57q-5 -11 -23 -37.5t-20 -54.5q-1 -8 -8.5 -20t-16.5 -25.5t-16 -28t-7 -26.5q0 -19 -6.5 -31t-6.5 -29q0 -5 -6 -5q4 -10 13 -10q12 0 25.5 11.5t28.5 29.5t31 40t33 44zM711 99q2 -1 5 -1q11 0 11 9 q0 1 -5.5 5t-6.5 4q-8 0 -8 -7q0 -5 4 -10z" glyph-name="FLW117" horiz-adv-x="922" unicode="u"/><glyph d="M273 -138l-104 -5q-96 131 -96 240q0 20 -1.5 19t-6 -10.5t-13 -20.5t-21.5 -11q-11 0 -11 38q0 50 14 92q5 11 9 14q6 0 23 26t38 61.5t42.5 73t35.5 60.5q23 39 49 68q56 63 126 56q12 -15 21.5 -46.5t9.5 -52.5l11 -10l-15 -66q-8 -31 -18.5 -54t-34.5 -27 q-7 -1 -5 -6.5t9 -11.5t16.5 -11t16.5 -5q11 0 25 15t27 35.5t24 42.5t17 35q7 17 18 28t19 14l11 5q0 9 8 23t8 24l15 16q8 8 18 24.5t19 34t17.5 33t13.5 23.5q2 2 14.5 8t26.5 13l26 13t12 8l47 32q14 9 23 9q13 0 22.5 -13.5t17 -33.5t12.5 -42.5l9 -40.5 q11 -47 39 -103t55 -106q3 -32 -15 -32q-15 0 -24 13t-14 13q-2 0 -3.5 -8t-1.5 -27t-16 -19q-20 0 -36 28l-10 16l-10 21q-6 11 -6 16l-11 5q-19 9 -19 -3q0 -11 3 -29.5t3 -39.5q0 -4 3.5 -11t8 -13.5t9 -11.5t6.5 -5q7 0 6 -9q-3 -14 -16 -14q-9 0 -19 10l-6 11 q-23 -3 -34.5 11.5t-22.5 30.5l-10 4q-3 1 -6 1q-5 0 -5 -5l-21 -16q-2 -2 -1 -6.5t-4 -4.5l-5 -20q-8 -29 -52 -78q-11 -11 -27.5 -29.5t-36.5 -44.5l-10 -16q0 -1 0.5 -4l0.5 -3q0 -5 -7 -5.5t-10 -3.5l-16 -26q-1 -1 0.5 -5t1.5 -5q0 -9 -22 -21q-19 2 -33.5 -18 t-25.5 -35q-2 -2 -11.5 -8t-19.5 -13.5t-18 -14.5t-8 -11q-6 -3 -10 2t-6.5 12t-5 13.5t-5.5 6.5q-5 0 -6 -6.5t0 -15t2.5 -17.5t1.5 -15q0 -52 -39 -53zM111 160q5 0 5 3t-3.5 9t-7.5 6q-2 0 -2 -1q0 -10 7 -17q1 -1 1 0z" glyph-name="FLW118" horiz-adv-x="933" unicode="v"/><glyph d="M659 -144l-104 -5q-76 103 -91 188l-4 -2q-1 -1 -1.5 -1t-1.5 -1q-19 2 -33.5 -18t-25.5 -35q-2 -2 -11.5 -8t-19.5 -13.5t-18 -14.5t-8 -11q-6 -3 -10 2t-6.5 12t-5 13.5t-5.5 6.5q-5 0 -6 -6.5t0 -15t2.5 -17.5t1.5 -15q0 -52 -39 -53l-104 -5q-96 131 -96 240 q0 20 -1.5 19t-6 -10.5t-13 -20.5t-21.5 -11q-11 0 -11 38q0 50 14 92q5 11 9 14q6 0 23 26t38 61.5t42.5 73t35.5 60.5q23 39 49 68q56 63 126 56q12 -15 21.5 -46.5t9.5 -52.5l11 -10l-15 -66q-8 -31 -18.5 -54t-34.5 -27q-7 -1 -5 -6.5t9 -11.5t16.5 -11t16.5 -5 q11 0 25 15t27 35.5t24 42.5t17 35q7 17 18 28t19 14l11 5q0 9 8 23t8 24l15 16q8 8 18 24.5t19 34t17.5 33t13.5 23.5q2 2 14.5 8t26.5 13l26 13t12 8l47 32q14 9 23 9q14 0 23 -13.5t15.5 -33.5t11.5 -42.5t11 -40.5q3 -19 -33 -144q-28 -93 -28 -119q0 -17 11.5 -12.5 t28.5 22t37 43.5t37 51t28.5 44.5t11.5 24.5l15 16q8 8 18 24.5t19 34t17.5 33t13.5 23.5q2 2 14.5 8t26.5 13l26 13t12 8l47 32q14 9 23 9q13 0 22.5 -13.5t17 -33.5t12.5 -42.5l9 -40.5q11 -47 39 -103t55 -106q3 -32 -15 -32q-15 0 -24 13t-14 13q-2 0 -3.5 -8t-1.5 -27 t-16 -19q-20 0 -36 28l-10 16l-10 21q-6 11 -6 16l-11 5q-19 9 -19 -3q0 -11 3 -29.5t3 -39.5q0 -4 3.5 -11t8 -13.5t9 -11.5t6.5 -5q7 0 6 -9q-3 -14 -16 -14q-9 0 -19 10l-6 11q-23 -3 -34.5 11.5t-22.5 30.5l-10 4q-3 1 -6 1q-5 0 -5 -5l-21 -16q-2 -2 -1 -6.5t-4 -4.5 l-5 -20q-8 -29 -52 -78q-11 -11 -27.5 -29.5t-36.5 -44.5l-10 -16q0 -1 0.5 -4l0.5 -3q0 -5 -7 -5.5t-10 -3.5l-16 -26q-1 -1 0.5 -5t1.5 -5q0 -9 -22 -21q-19 2 -33.5 -18t-25.5 -35q-2 -2 -11.5 -8t-19.5 -13.5t-18 -14.5t-8 -11q-6 -3 -10 2t-6.5 12t-5 13.5t-5.5 6.5 q-5 0 -6 -6.5t0 -15t2.5 -17.5t1.5 -15q0 -52 -39 -53zM111 160q5 0 5 3t-3.5 9t-7.5 6q-2 0 -2 -1q0 -10 7 -17q1 -1 1 0z" glyph-name="FLW119" horiz-adv-x="1319" unicode="w"/><glyph d="M712 182l131 102q15 -10 15 -21q0 -7 -15 -37l-19 -4l-4 -7q-5 -8 -0.5 -15.5t20.5 -7.5q0 -6 -5.5 -17.5t-11.5 -24t-11 -25t-5 -20.5q-6 -23 -23 -23q-6 -5 -8 -15t-18 -21l-16 -11q-3 -2 -2.5 -10.5t-7.5 -8.5l-2 -6q-2 -6 -11.5 -12t-21 -11t-22.5 -8.5t-15 -3.5 q-8 0 -31 14l-26 18q-11 8 -19 8q-9 0 -19 -5l-13 -7q-6 3 -16 -8t-17 -9l-9 -6l-10 -1h-10.5t-12.5 -1l-26 -1q-20 -1 -31 6.5t-17 22t-10 35.5t-10 47q0 2 -7 22.5t-15.5 44t-16 43t-8.5 19.5q-6 0 -8 -8q-2 -13 2 -17q-2 -1 -10.5 -2t-18 -5t-17 -11t-7.5 -19 q0 -9 -3 -13t-7 -7.5t-7 -10.5t-3 -23q0 -9 -4 -21.5t-4 -21.5q-6 11 -21 11q-23 0 -22 -34l-6 -2l-4 -7l-28 -7q0 -9 -6.5 -14.5t-8.5 -11.5l-5 -19q-2 -6 -3 -5.5t-2.5 4.5l-3 8t-3.5 4t-5 -5t-8.5 -10.5t-13 -10.5t-18.5 -5q-21 0 -41 20l-10 6q0 6 -10 15.5t-10 22.5 t15 24.5t18 18.5l17 11q14 8 29.5 26.5t28.5 31.5l121 121q58 58 58 91q0 14 -6.5 32t-14 36.5t-14 35.5t-6.5 28l-7 6q-4 4 -7.5 16t-8 26.5t-11 27.5t-16.5 18l-6 3q-2 2 -2 7v6q0 9 7.5 21.5t19 24t25.5 19.5t26 8q8 0 12 -4l26 3h39l26 -20l10 -17q1 -1 4 0t3 -3l13 11 q5 3 8 3q11 0 21.5 -19t19.5 -41t16 -41t10 -19q9 0 27 14t40 34t44.5 42.5t41.5 39.5q11 10 19.5 11.5t17.5 2.5t20.5 4.5t27.5 17.5l7 6q21 18 51 18q20 0 35.5 -11t26 -28t16 -37.5t5.5 -39.5q0 -9 -4 -23.5t-4 -21.5t1 -10l-7 -13q0 -1 1 -4l1 -3q0 -4 -4.5 -7t-4.5 -9 l-12 -4l-11 -15q-1 -2 -7 -7t-14 -11t-16 -11.5t-11 -7.5l-7 -3q-1 25 -12 25q-2 0 -5.5 -12t-4.5 -13l-7 -10q-5 -6 -7 -6q-3 0 -4 4l-8 12q0 3 -3.5 23t-9 43t-10.5 23q-8 0 -29 -29l-15 -22q-7 -10 -12 -12l-7 -2q-10 -3 -24.5 -19.5t-27.5 -37t-22 -40.5t-9 -30t5 -18 l7 -9q6 0 11.5 -18t9.5 -38t6.5 -34t2.5 -6q0 -6 -5 -9q2 -2 4.5 -13t6.5 -24t8.5 -23t10.5 -10q20 0 36.5 13t51.5 40zM419 630q-5 0 -3 1t3 -1zM543 309q10 -1 10 1q0 3 -4.5 8t-7.5 5q-2 0 -2 -2q0 -5 4 -12zM556 265q3 -3 6 -3q5 0 5 14q0 1 -6 12.5l-6 11.5q-2 -2 0 -8 q0 -6 1.5 -13.5t-0.5 -13.5zM552 247q0 -18 11 -18q3 0 8 7.5t5 15.5q0 6 -12 6t-12 -11zM304 167q-4 0 -2 1.5t2 -1.5zM788 117q10 -5 11 -3t-2 5.5t-7.5 6.5t-4.5 0q0 -2 3 -9zM216 88q-5 -2 -0.5 -9t8.5 -6l5 7.5t5 8.5q0 12 -11 12q-7 0 -7 -13zM730 74q-13 -1 -13 -10 q0 -13 13 -13q5 0 13.5 6.5t8.5 11.5q0 13 -12 13q-7 0 -10 -8z" glyph-name="FLW120" horiz-adv-x="893" unicode="x"/><glyph d="M569 365q-35 -38 -48.5 -65.5t-13.5 -49.5q0 -31 23 -60t51 -29h6q16 0 38 21t45 53t44.5 68.5t38.5 68.5l32 62l32 62q39 74 75 117q0 6 6.5 8t15.5 1t19 -2.5t17 -1.5l5 -10q34 -6 58.5 -43t24.5 -95q0 -32 -10 -64t-27 -70q-13 -28 -25.5 -57t-25.5 -58l-89 -210 q-2 -5 -9.5 -11.5t-7.5 -12.5q0 1 -2 -11t-7 -17l-11 -5q-4 -2 -13 -26t-18 -42l-63 -27q-1 -4 -9.5 -10t-17.5 -12t-14.5 -10t-0.5 -4q3 -23 -19 -44t-44 -50l-10 -6q-12 26 -18 26q-5 0 -6 -12l-4 -28q-4 -26 -7.5 -35t-8.5 -9t-10.5 6.5t-12.5 6.5q-6 0 -16 -8.5 t-24 -8.5q-23 0 -23 -50q0 -13 -5.5 -18t-13.5 -7t-16 -4.5t-13 -10.5t-10.5 -17.5t-15.5 -13.5l-11 -5l-120 -84l-5 11q-42 0 -42 -21q-26 26 -46 26q-10 0 -23.5 -11t-29.5 -11q-22 0 -42.5 13.5t-36.5 36t-25.5 53t-9.5 64.5q0 19 7 52.5t23 65t43 52.5t67 15 q22 3 43.5 -8t38.5 -29.5t27.5 -41t10.5 -42.5v-120q30 30 66 82t69.5 112.5t60 123t35.5 111.5q-7 9 -16 23t-14 14q5 -5 -5.5 -9t-25.5 -6.5t-28.5 -4t-14.5 -0.5l-38 30q-6 5 -12.5 -2t-11.5 -7q-20 0 -39.5 24t-35 57t-26 66t-11.5 51q7 38 26 57v64v12t-1 13l10 16 l38 42q6 7 6 3q0 -3 -1.5 -15t6.5 -4l69 63q7 6 7 10q0 1 -2 5q-65 21 -65 56q0 27 40 54l199 11q0 8 13 19t32 11q2 0 3 -0.5t2 -0.5l53 9q20 3 31 -9q14 -14 14 -29q0 -13 -7.5 -29t-17.5 -40l-49 -72q-17 -35 -34 -59t-36 -43zM569 365q0 5 -1 5t-1.5 -2t0 -3.5t2.5 0.5z" glyph-name="FLW121" unicode="y"/><glyph d="M492 -11l-76 -4q-12 25 -45 25q-20 0 -37 -14l-55 32q-1 1 -8 2.5t-7 4.5l-39 3q-59 -37 -81 -37q-9 0 -14 8q-3 1 -15 -4t-26 -11t-26 -11t-14 -5q-13 0 -16 15l-7 3q-6 3 -6 33q0 31 17 65.5t52 66.5q19 18 49 43.5t68 61.5q5 9 17 15.5t16 11.5l98 105q10 0 13 5t5 5 l170 164q-4 13 -20 13q-10 0 -25 -5.5t-22 -5.5q-12 0 -15 -8t-13 -8q-6 0 -16 2.5t-21.5 5t-22.5 5t-18 2.5q-3 0 -10.5 -3t-16.5 -1q-2 5 -5 2.5t-8 -7.5t-11 -10t-14 -5q-10 0 -27.5 4t-27.5 4l-7 6q-17 14 -23.5 21.5t-6.5 23.5q0 44 22 69.5t56 25.5q3 0 8 -0.5t8 -0.5 l97 -14l175 10l1.5 -1.5t5.5 -1.5q8 0 24.5 3t25.5 3q82 0 82 -38q0 -21 26 -33l9 -4q1 0 4.5 -10t3.5 -13q0 -11 -6.5 -22.5t-6.5 -14.5q0 -6 5 -13t5 -12q0 -7 -4 -7.5t-4 -4.5q-1 -4 0 -10l2 -12q1 -6 -3 -10l-8 -7q0 -5 -6.5 -15.5t-13.5 -22t-13.5 -23t-6.5 -17.5v-7 t-1 -12l-2 -15l-6 -9l-19 -10q1 0 1 -2v-2q0 -2 -2.5 -3t-2.5 -3l-119 -105l-4 -8q-1 -2 -4 -2t-3 -4h-18q1 0 1.5 -4t0.5 -5q0 -6 -6 -11l-7 -3l-3 -7q-2 -4 -8 -7t-6 4q0 2 11 7l3 6q1 4 5.5 6t-3.5 6q-3 0 -5 -5l-8 -3l-28 -19q5 -1 11 -2t13 -3q1 0 -8.5 -1t-27.5 -3 q-2 -2 -2 -7q0 -10 25 -16.5t56 -10.5t58.5 -5t32.5 1l10 -10q6 -6 13.5 -10.5t7.5 -16.5q0 -7 -5 -17.5t-11.5 -21.5t-12.5 -20.5t-7 -13.5q-16 -18 -31.5 -34.5t-43.5 -20.5q-8 1 -21 -2t-15 8zM159 16q0 4 -5 6q-8 -8 -8.5 -11t2.5 -3t7 2.5t4 5.5zM173 30q-2 4 -1.5 0 t1.5 0zM199 39q0 12 -8.5 4t-13.5 -12q22 0 22 8zM437 220q-11 0 -11 -6q0 1 4 -4t6 -2q7 2 9.5 7t-8.5 5z" glyph-name="FLW122" horiz-adv-x="763" unicode="z"/><glyph d="M334 461l382 450q101 119 179 172q36 25 72 38q22 5 32 5q28 0 47 -21q31 -32 37 -36l10 -6q11 -6 25 -13t31 -17l64 -38l6 -21q5 -18 13 -41.5t8 -41.5q0 -49 -27 -100l-109 -204q-37 -70 -63 -125.5t-41 -98.5q-14 -39 -14 -62q0 -15 8 -23q2 16 8 16.5t12.5 -6.5 t11.5 -17.5t5 -15.5q0 -11 3 -20t-4 -20l-15 -26q-1 -3 -8.5 -9.5t-7.5 -16.5l-11 -5v-37l-10 -5l-42 -84q-2 -4 -1 -7.5t-4 -8.5l-11 -5q-14 -31 -44.5 -55t-63.5 -24q-16 0 -28 6q-53 -5 -110 30q-62 38 -99 90q-6 3 -9 9.5t-5 14t-3.5 13t-3.5 5.5q0 9 3.5 28.5t10 38.5 t15 33.5t18.5 14.5q-26 8 -52 8q-96 0 -190 -102q-75 -81 -135 -194q-22 -22 -60 -22q-48 0 -94 34q-50 36 -50 83q0 28 16 41l5 21q1 7 12 20.5t24.5 28t27 28l20.5 20.5l16 16q16 16 16 28q0 9 -6 15t-14.5 11.5t-16.5 10.5t-11 11l-5 10l-11 16l-10 21q-7 14 -7 34 q0 9 2.5 28t2.5 28q0 28 23 45t52 17q8 0 28.5 -3t43.5 -7t43.5 -7t28.5 -3q27 0 34 9zM976 879q-7 1 -12.5 1.5t-9.5 0.5q-18 0 -18 -6q0 -14 24 -14q16 0 16 18zM737 487l173 330q8 14 1 10t-19 -15.5t-24.5 -25t-15.5 -16.5l-15 -10q-11 -7 -23 -26.5t-25 -26.5 q-10 0 -18 -13t-17 -28.5t-19.5 -28.5t-23.5 -13q0 2 -12.5 -4t-12.5 -27v-8q0 -27 -17 -35l-5 -10q-7 0 -18.5 -2.5t-16.5 -2.5q-7 0 -12 5q0 12 -3 12t-6.5 -7t-6.5 -19t-3 -24q0 -20 11 -20q8 0 11 -4t6.5 -8.5t12 -8.5t26.5 -4q55 0 72 30zM774 604q-16 0 -21.5 2 t-5.5 4q0 4 9.5 8t13.5 3t4 -17z" glyph-name="FLW192" horiz-adv-x="1260" unicode="À"/><glyph d="M334 461l382 450q101 119 179 172q36 25 72 38q22 5 32 5q28 0 47 -21q31 -32 37 -36l10 -6q11 -6 25 -13t31 -17l64 -38l6 -21q5 -18 13 -41.5t8 -41.5q0 -49 -27 -100l-109 -204q-37 -70 -63 -125.5t-41 -98.5q-14 -39 -14 -62q0 -15 8 -23q2 16 8 16.5t12.5 -6.5 t11.5 -17.5t5 -15.5q0 -11 3 -20t-4 -20l-15 -26q-1 -3 -8.5 -9.5t-7.5 -16.5l-11 -5v-37l-10 -5l-42 -84q-2 -4 -1 -7.5t-4 -8.5l-11 -5q-14 -31 -44.5 -55t-63.5 -24q-16 0 -28 6q-53 -5 -110 30q-62 38 -99 90q-6 3 -9 9.5t-5 14t-3.5 13t-3.5 5.5q0 9 3.5 28.5t10 38.5 t15 33.5t18.5 14.5q-26 8 -52 8q-96 0 -190 -102q-75 -81 -135 -194q-22 -22 -60 -22q-48 0 -94 34q-50 36 -50 83q0 28 16 41l5 21q1 7 12 20.5t24.5 28t27 28l20.5 20.5l16 16q16 16 16 28q0 9 -6 15t-14.5 11.5t-16.5 10.5t-11 11l-5 10l-11 16l-10 21q-7 14 -7 34 q0 9 2.5 28t2.5 28q0 28 23 45t52 17q8 0 28.5 -3t43.5 -7t43.5 -7t28.5 -3q27 0 34 9zM976 879q-7 1 -12.5 1.5t-9.5 0.5q-18 0 -18 -6q0 -14 24 -14q16 0 16 18zM737 487l173 330q8 14 1 10t-19 -15.5t-24.5 -25t-15.5 -16.5l-15 -10q-11 -7 -23 -26.5t-25 -26.5 q-10 0 -18 -13t-17 -28.5t-19.5 -28.5t-23.5 -13q0 2 -12.5 -4t-12.5 -27v-8q0 -27 -17 -35l-5 -10q-7 0 -18.5 -2.5t-16.5 -2.5q-7 0 -12 5q0 12 -3 12t-6.5 -7t-6.5 -19t-3 -24q0 -20 11 -20q8 0 11 -4t6.5 -8.5t12 -8.5t26.5 -4q55 0 72 30zM774 604q-16 0 -21.5 2 t-5.5 4q0 4 9.5 8t13.5 3t4 -17z" glyph-name="FLW192" horiz-adv-x="1260" unicode="А"/><glyph d="M923 851l-120 -5l-96 5q-95 -115 -95 -173q0 -13 5 -23q-11 -6 1.5 -10t33.5 -7t43.5 -5t31.5 -4l85 -17q38 -8 51 -9l99 -11l90 -26l11.5 -10.5t19.5 -10.5l16 -37q7 -15 2.5 -21.5t-4.5 -19.5q0 -4 0.5 -7.5t1.5 -8.5l-11 -6q0 -35 -16 -68l-10 -21l-10 -15l-4.5 -7.5 t-9.5 -17.5t-9 -19.5t-4 -13.5l-83 -94q-3 -4 -11.5 -8t-18 -10t-16.5 -14t-7 -20v-21l-10 -6q-5 -23 -27 -23q-6 0 -8 5.5t-3.5 12.5t-4.5 12.5t-9 5.5q-2 0 -4.5 -0.5t-6.5 -1.5q-9 -73 -100 -73q-13 -8 -32.5 -19t-45.5 -24q-19 -9 -36 -14t-17 11l-2.5 3t-2.5 6 q-71 -14 -63 -37q3 -8 0.5 -11.5t-8.5 -5.5l-11 -3q-5 -1 -7 -6h-68q-23 0 -45 1.5t-44 3.5l-52 6l-26 10q-18 7 -34 11t-29 5l-63 5l-16 10q-15 9 -44.5 15.5t-44.5 16.5q-2 25 -3.5 44t-1.5 32q0 173 100 395q32 71 93 186q36 69 60.5 115.5t34.5 69.5t20 45.5t20 45.5 q16 37 33 56.5t42 41.5l5 4q38 30 61 30l256 26q59 6 65 6q21 0 29 -6q23 -5 51.5 -6t53.5 -6t42 -17.5t17 -39.5q0 -4 -0.5 -9.5t-1.5 -10.5l4 -13t9.5 -28t10 -27t4.5 -10q0 -10 -1 -16l10 -5q2 -1 2 -6.5v-6.5q0 -12 -12 -29l-11 -16q-7 3 -12 3q-12 0 -16 -14t-13 -14 q-7 0 -15.5 4t-19.5 4q-12 0 -18 -9zM444 356q3 -36 -36 -85l-27 -33q-13 -16 -13 -30q0 -8 8 -19h52q14 0 41.5 5t42.5 5l5 -10q-14 0 -38.5 -2.5t-48.5 -6.5t-42 -10t-18 -13q0 -8 14 -8.5t33 -0.5q3 0 9 -1.5t9 -1.5q5 0 7 1.5t8 1.5q11 0 26 -4l5 -2q119 59 162 125 q5 3 7 12t9 9l36 79q6 13 6 25q0 22 -21 37t-51 24.5t-63.5 14t-58.5 4.5q-6 -27 -27 -60l-18 -28zM334 278q3 -4 1 -14l-2 -10t-3 -10l-7 -21q-4 -9 -4 -19q0 -18 20 -15q0 22 12 41t12 45q0 19 -8 19q-9 0 -21 -16zM842 79q-5 0 -5 1l2 2q1 2 3 -3zM837 74q-4 0 -4 1 l1.5 1.5t2.5 -2.5z" glyph-name="FLW193" horiz-adv-x="1123" unicode="Á"/><glyph d="M923 851l-120 -5l-96 5q-95 -115 -95 -173q0 -13 5 -23q-11 -6 1.5 -10t33.5 -7t43.5 -5t31.5 -4l85 -17q38 -8 51 -9l99 -11l90 -26l11.5 -10.5t19.5 -10.5l16 -37q7 -15 2.5 -21.5t-4.5 -19.5q0 -4 0.5 -7.5t1.5 -8.5l-11 -6q0 -35 -16 -68l-10 -21l-10 -15l-4.5 -7.5 t-9.5 -17.5t-9 -19.5t-4 -13.5l-83 -94q-3 -4 -11.5 -8t-18 -10t-16.5 -14t-7 -20v-21l-10 -6q-5 -23 -27 -23q-6 0 -8 5.5t-3.5 12.5t-4.5 12.5t-9 5.5q-2 0 -4.5 -0.5t-6.5 -1.5q-9 -73 -100 -73q-13 -8 -32.5 -19t-45.5 -24q-19 -9 -36 -14t-17 11l-2.5 3t-2.5 6 q-71 -14 -63 -37q3 -8 0.5 -11.5t-8.5 -5.5l-11 -3q-5 -1 -7 -6h-68q-23 0 -45 1.5t-44 3.5l-52 6l-26 10q-18 7 -34 11t-29 5l-63 5l-16 10q-15 9 -44.5 15.5t-44.5 16.5q-2 25 -3.5 44t-1.5 32q0 173 100 395q32 71 93 186q36 69 60.5 115.5t34.5 69.5t20 45.5t20 45.5 q16 37 33 56.5t42 41.5l5 4q38 30 61 30l256 26q59 6 65 6q21 0 29 -6q23 -5 51.5 -6t53.5 -6t42 -17.5t17 -39.5q0 -4 -0.5 -9.5t-1.5 -10.5l4 -13t9.5 -28t10 -27t4.5 -10q0 -10 -1 -16l10 -5q2 -1 2 -6.5v-6.5q0 -12 -12 -29l-11 -16q-7 3 -12 3q-12 0 -16 -14t-13 -14 q-7 0 -15.5 4t-19.5 4q-12 0 -18 -9zM444 356q3 -36 -36 -85l-27 -33q-13 -16 -13 -30q0 -8 8 -19h52q14 0 41.5 5t42.5 5l5 -10q-14 0 -38.5 -2.5t-48.5 -6.5t-42 -10t-18 -13q0 -8 14 -8.5t33 -0.5q3 0 9 -1.5t9 -1.5q5 0 7 1.5t8 1.5q11 0 26 -4l5 -2q119 59 162 125 q5 3 7 12t9 9l36 79q6 13 6 25q0 22 -21 37t-51 24.5t-63.5 14t-58.5 4.5q-6 -27 -27 -60l-18 -28zM334 278q3 -4 1 -14l-2 -10t-3 -10l-7 -21q-4 -9 -4 -19q0 -18 20 -15q0 22 12 41t12 45q0 19 -8 19q-9 0 -21 -16zM842 79q-5 0 -5 1l2 2q1 2 3 -3zM837 74q-4 0 -4 1 l1.5 1.5t2.5 -2.5z" glyph-name="FLW193" horiz-adv-x="1123" unicode="Б"/><glyph d="M1004 1110q72 -1 125 -28q56 -30 56 -90q0 -40 -14 -81t-41 -72q-1 -1 -12 -15.5t-26 -32t-31 -31.5t-25 -14q-3 0 -5 -3.5t-6 -3.5l-5 -11l-94 -63q-30 -20 -48.5 -29t-26.5 -21q-7 -11 12 -12l99 -11l90 -26l11.5 -10.5t19.5 -10.5l16 -37q7 -15 2.5 -21.5t-4.5 -19.5 q0 -4 0.5 -7.5t1.5 -8.5l-11 -6q0 -35 -16 -68l-10 -21l-10 -15l-4.5 -7.5t-9.5 -17.5t-9 -19.5t-4 -13.5l-83 -94q-3 -4 -11.5 -8t-18 -10t-16.5 -14t-7 -20v-21l-10 -6q-5 -23 -27 -23q-6 0 -8 5.5t-3.5 12.5t-4.5 12.5t-9 5.5q-2 0 -4.5 -0.5t-6.5 -1.5q-9 -73 -100 -73 q-13 -8 -32.5 -19t-45.5 -24q-19 -9 -36 -14t-17 11l-2.5 3t-2.5 6q-71 -14 -63 -37q3 -8 0.5 -11.5t-8.5 -5.5l-11 -3q-5 -1 -7 -6h-68q-23 0 -45 1.5t-44 3.5l-52 6l-26 10q-18 7 -34 11t-29 5l-63 5l-16 10q-15 9 -44.5 15.5t-44.5 16.5q-2 25 -3.5 44t-1.5 32 q0 192 129 456q5 10 32.5 63t77.5 148q34 64 59 117.5t42 97.5q17 42 63 73l16 11q13 8 27 8q10 0 23 -5t25 -11t22 -11.5t13 -6.5l26 -16l5 -11q26 -57 67 -57q19 0 44 10t50.5 24.5t49 30t41.5 25.5q93 58 172 56zM617 655q23 14 48 33.5t48.5 41.5t44 45t32.5 42l10 16 q-2 -2 6.5 15.5t18.5 41t19 47.5t9 35q0 10 -10 10q-3 0 -11 -2q-129 -107 -197 -230q-23 -43 -23 -72q0 -13 5 -23zM444 356q3 -36 -36 -85l-27 -33q-13 -16 -13 -30q0 -8 8 -19h52q14 0 41.5 5t42.5 5l5 -10q-14 0 -38.5 -2.5t-48.5 -6.5t-42 -10t-18 -13q0 -8 14 -8.5 t33 -0.5q3 0 9 -1.5t9 -1.5q5 0 7 1.5t8 1.5q11 0 26 -4l5 -2q119 59 162 125q5 3 7 12t9 9l36 79q6 13 6 25q0 22 -21 37t-51 24.5t-63.5 14t-58.5 4.5q-6 -27 -27 -60l-18 -28zM334 278q3 -4 1 -14l-2 -10t-3 -10l-7 -21q-4 -9 -4 -19q0 -18 20 -15q0 22 12 41t12 45 q0 19 -8 19q-9 0 -21 -16zM842 79q-5 0 -5 1l2 2q1 2 3 -3zM837 74q-4 0 -4 1l1.5 1.5t2.5 -2.5z" glyph-name="FLW194" horiz-adv-x="1205" unicode="Â"/><glyph d="M1004 1110q72 -1 125 -28q56 -30 56 -90q0 -40 -14 -81t-41 -72q-1 -1 -12 -15.5t-26 -32t-31 -31.5t-25 -14q-3 0 -5 -3.5t-6 -3.5l-5 -11l-94 -63q-30 -20 -48.5 -29t-26.5 -21q-7 -11 12 -12l99 -11l90 -26l11.5 -10.5t19.5 -10.5l16 -37q7 -15 2.5 -21.5t-4.5 -19.5 q0 -4 0.5 -7.5t1.5 -8.5l-11 -6q0 -35 -16 -68l-10 -21l-10 -15l-4.5 -7.5t-9.5 -17.5t-9 -19.5t-4 -13.5l-83 -94q-3 -4 -11.5 -8t-18 -10t-16.5 -14t-7 -20v-21l-10 -6q-5 -23 -27 -23q-6 0 -8 5.5t-3.5 12.5t-4.5 12.5t-9 5.5q-2 0 -4.5 -0.5t-6.5 -1.5q-9 -73 -100 -73 q-13 -8 -32.5 -19t-45.5 -24q-19 -9 -36 -14t-17 11l-2.5 3t-2.5 6q-71 -14 -63 -37q3 -8 0.5 -11.5t-8.5 -5.5l-11 -3q-5 -1 -7 -6h-68q-23 0 -45 1.5t-44 3.5l-52 6l-26 10q-18 7 -34 11t-29 5l-63 5l-16 10q-15 9 -44.5 15.5t-44.5 16.5q-2 25 -3.5 44t-1.5 32 q0 192 129 456q5 10 32.5 63t77.5 148q34 64 59 117.5t42 97.5q17 42 63 73l16 11q13 8 27 8q10 0 23 -5t25 -11t22 -11.5t13 -6.5l26 -16l5 -11q26 -57 67 -57q19 0 44 10t50.5 24.5t49 30t41.5 25.5q93 58 172 56zM617 655q23 14 48 33.5t48.5 41.5t44 45t32.5 42l10 16 q-2 -2 6.5 15.5t18.5 41t19 47.5t9 35q0 10 -10 10q-3 0 -11 -2q-129 -107 -197 -230q-23 -43 -23 -72q0 -13 5 -23zM444 356q3 -36 -36 -85l-27 -33q-13 -16 -13 -30q0 -8 8 -19h52q14 0 41.5 5t42.5 5l5 -10q-14 0 -38.5 -2.5t-48.5 -6.5t-42 -10t-18 -13q0 -8 14 -8.5 t33 -0.5q3 0 9 -1.5t9 -1.5q5 0 7 1.5t8 1.5q11 0 26 -4l5 -2q119 59 162 125q5 3 7 12t9 9l36 79q6 13 6 25q0 22 -21 37t-51 24.5t-63.5 14t-58.5 4.5q-6 -27 -27 -60l-18 -28zM334 278q3 -4 1 -14l-2 -10t-3 -10l-7 -21q-4 -9 -4 -19q0 -18 20 -15q0 22 12 41t12 45 q0 19 -8 19q-9 0 -21 -16zM842 79q-5 0 -5 1l2 2q1 2 3 -3zM837 74q-4 0 -4 1l1.5 1.5t2.5 -2.5z" glyph-name="FLW194" horiz-adv-x="1205" unicode="В"/><glyph d="M826 1126h194q36 0 36 -31q0 -12 -7 -30t-17 -38.5t-21.5 -41t-21.5 -37.5q-4 -26 -21.5 -47t-43.5 -36t-55.5 -23.5t-57.5 -8.5h-178q-6 7 -11 7q-13 0 -21 -21.5t-12.5 -48t-6 -49.5t-1.5 -26q2 -14 -6.5 -23.5t-8.5 -33.5l-19 -29q-1 -1 -4 -11t4 -10l-16 -31 q-11 -22 -11 -41v-8.5t1 -11.5v-21q0 -14 -9 -26t-19.5 -24t-19.5 -25t-9 -28l-2 -54q0 -24 -6 -64q-2 -2 -33 -49q-5 0 -5 -11l-16 -16l-8.5 -14t-19 -30t-19 -28t-8.5 -8q-1 -8 3 -24q-4 0 -11.5 -3t-15 -8t-12.5 -10.5t-3 -10.5l-16 -10l-10 -16q-3 -4 -14 -10.5 t-23 -13.5t-21.5 -14.5t-9.5 -13.5q-6 0 -13.5 -4t-12.5 -4t-11 3l-15 -11l-3 0.5t-4 0.5q-7 0 -21 -9.5t-28 -9.5q-68 0 -86 70q0 58 11 116t31 120q16 50 39.5 124t56.5 173q40 120 79 212.5t74 157.5q99 181 186 181l318 51z" glyph-name="FLW195" horiz-adv-x="1076" unicode="Ã"/><glyph d="M826 1126h194q36 0 36 -31q0 -12 -7 -30t-17 -38.5t-21.5 -41t-21.5 -37.5q-4 -26 -21.5 -47t-43.5 -36t-55.5 -23.5t-57.5 -8.5h-178q-6 7 -11 7q-13 0 -21 -21.5t-12.5 -48t-6 -49.5t-1.5 -26q2 -14 -6.5 -23.5t-8.5 -33.5l-19 -29q-1 -1 -4 -11t4 -10l-16 -31 q-11 -22 -11 -41v-8.5t1 -11.5v-21q0 -14 -9 -26t-19.5 -24t-19.5 -25t-9 -28l-2 -54q0 -24 -6 -64q-2 -2 -33 -49q-5 0 -5 -11l-16 -16l-8.5 -14t-19 -30t-19 -28t-8.5 -8q-1 -8 3 -24q-4 0 -11.5 -3t-15 -8t-12.5 -10.5t-3 -10.5l-16 -10l-10 -16q-3 -4 -14 -10.5 t-23 -13.5t-21.5 -14.5t-9.5 -13.5q-6 0 -13.5 -4t-12.5 -4t-11 3l-15 -11l-3 0.5t-4 0.5q-7 0 -21 -9.5t-28 -9.5q-68 0 -86 70q0 58 11 116t31 120q16 50 39.5 124t56.5 173q40 120 79 212.5t74 157.5q99 181 186 181l318 51z" glyph-name="FLW195" horiz-adv-x="1076" unicode="Г"/><glyph d="M644 241l209 -36q12 -2 24.5 2t12.5 15q0 29 34 119l32 84q10 25 24.5 63.5t31.5 90.5q5 15 7 27t2 18v36l10 26q6 16 6 45q0 40 -11 65l-5 11q-9 0 -14.5 5t-11.5 10l-74 50q-9 6 -16 6q-9 0 -17.5 -11.5t-15.5 -28.5t-13.5 -36t-10.5 -34q-8 -27 -18 -38.5t-10 -16.5 l2 -6l-31 -78q-3 -6 -8.5 -23.5t-13.5 -37t-18.5 -38t-22.5 -27.5q-4 -4 -7.5 -16t-7.5 -26.5t-7.5 -29.5t-6.5 -26q-3 -9 -13.5 -21t-22 -28.5t-20.5 -37t-9 -46.5q0 -28 10 -31zM1151 151l-10 -10q-1 -10 -9 -21t-19 -20.5t-23 -16t-21 -7.5q-39 -34 -75 -58.5t-70 -38.5 q-22 -8 -39 -10l-100 -5q-10 -1 -16.5 -1h-9.5h-28q-152 0 -286 28q-156 33 -220 83q1 8 4 18t7 24l10 15q-2 11 7 34t14 55q21 42 40.5 87t38.5 93l75 192q92 237 167 351l-96 -7q-6 0 -10 -4t-7.5 -8t-7 -6t-9.5 2l-19 -16q-15 -12 -29 -41.5t-18 -50.5l-5 -28l-18 -31 q-15 -26 -33 -97q-3 -13 -7.5 -31t-9.5 -36t-10.5 -31.5t-11.5 -17.5l6 -22q-2 -6 -6 -19.5t-10 -27t-12.5 -23.5t-12.5 -10q-14 0 -14 40q0 13 5 26l9 20q4 8 6 15t-7 12q-17 11 -25 -12.5t-12 -55t-6 -58t-8 -23.5q-3 5 -12.5 21t-19.5 16q1 0 -8.5 1.5t-21 5.5t-21 13 t-9.5 24q0 8 1 21t2.5 27.5t2.5 27.5t1 21q0 39 -13 39q-2 0 -6 -2q1 -3 1 -6t1 -5q1 -4 -4 -13l5 -21q0 1 -3.5 -7.5t-8 -19t-9.5 -19t-9 -8.5q-6 0 -13 8t-13 19.5t-9.5 25t-3.5 25.5q0 14 1 16t3.5 -1.5t7 -9t10.5 -5.5q14 0 12 20q-2 14 -13 14q-3 0 -7 -0.5t-6 2.5 l-23 14q-7 4 -5.5 8.5t5.5 13.5t8.5 25t4.5 43q0 2 -1.5 0t-2.5 -4q10 43 32 102.5t54 135.5q8 20 15.5 39.5t17.5 35.5q42 67 92.5 107.5t100.5 52.5q8 -2 12 -2q6 0 18 4t21 3l11 -1l154 11h183l135 -28l151 -48l98 -39l73 -38l18 -30l10 -5q8 -4 19 -16t23 -15 q75 -75 84 -236q-3 -23 -12 -63.5t-25 -98.5q-12 -44 -27.5 -97.5t-34.5 -115.5q-8 -26 -20 -64t-28 -88q0 13 -3 2t-8 -29t-11.5 -35t-13.5 -17h-15q-1 0 -3.5 -3.5t-3.5 -4.5zM822 849q4 -3 9 -3q7 0 7 11q-2 18 -10 18q-6 0 -6 -26zM1060 912q-17 0 -17 -5q0 -16 17 -11 q2 0 2 5q0 2 -0.5 4.5t-1.5 6.5zM1084 887q-12 0 -15.5 -3t-2.5 -7t5.5 -7t7.5 -3q7 0 7 9q0 2 -0.5 4.5t-1.5 6.5zM1139 792q-24 0 -24 -6q0 -1 22 -19q2 2 2 25zM1017 846q36 -24 54 -24q7 0 7 4q0 9 -16 15.5t-27 6.5q-4 0 -8.5 -0.5t-9.5 -1.5zM806 817q-14 0 -11.5 -5 t10 -7.5t14 1.5t0.5 22q-4 14 -13 -11zM780 807q-4 0 -4 -1q0 -2 1.5 -1.5t2.5 2.5zM759 681q1 -7 7 -7q4 0 9 6.5t5 11.5q10 5 -8 5q-15 -1 -15 -10zM644 367q5 0 5 2q0 5 -5 10.5t-10 5.5q-3 0 -3 -1q-5 -6 9 -15q4 -4 4 -2zM1262 349v-8q-8 0 -5 2.5t5 5.5zM1042 325 q-13 -10 -13 -22q0 -9 4.5 -9t9.5 4.5t9.5 12.5t4.5 15q0 17 -15 -1zM1031 267q8 3 8 6q0 7 -11 7q-5 0 -5.5 -2.5t1.5 -5.5t4.5 -5t2.5 0z" glyph-name="FLW196" horiz-adv-x="1375" unicode="Ä"/><glyph d="M644 241l209 -36q12 -2 24.5 2t12.5 15q0 29 34 119l32 84q10 25 24.5 63.5t31.5 90.5q5 15 7 27t2 18v36l10 26q6 16 6 45q0 40 -11 65l-5 11q-9 0 -14.5 5t-11.5 10l-74 50q-9 6 -16 6q-9 0 -17.5 -11.5t-15.5 -28.5t-13.5 -36t-10.5 -34q-8 -27 -18 -38.5t-10 -16.5 l2 -6l-31 -78q-3 -6 -8.5 -23.5t-13.5 -37t-18.5 -38t-22.5 -27.5q-4 -4 -7.5 -16t-7.5 -26.5t-7.5 -29.5t-6.5 -26q-3 -9 -13.5 -21t-22 -28.5t-20.5 -37t-9 -46.5q0 -28 10 -31zM1151 151l-10 -10q-1 -10 -9 -21t-19 -20.5t-23 -16t-21 -7.5q-39 -34 -75 -58.5t-70 -38.5 q-22 -8 -39 -10l-100 -5q-10 -1 -16.5 -1h-9.5h-28q-152 0 -286 28q-156 33 -220 83q1 8 4 18t7 24l10 15q-2 11 7 34t14 55q21 42 40.5 87t38.5 93l75 192q92 237 167 351l-96 -7q-6 0 -10 -4t-7.5 -8t-7 -6t-9.5 2l-19 -16q-15 -12 -29 -41.5t-18 -50.5l-5 -28l-18 -31 q-15 -26 -33 -97q-3 -13 -7.5 -31t-9.5 -36t-10.5 -31.5t-11.5 -17.5l6 -22q-2 -6 -6 -19.5t-10 -27t-12.5 -23.5t-12.5 -10q-14 0 -14 40q0 13 5 26l9 20q4 8 6 15t-7 12q-17 11 -25 -12.5t-12 -55t-6 -58t-8 -23.5q-3 5 -12.5 21t-19.5 16q1 0 -8.5 1.5t-21 5.5t-21 13 t-9.5 24q0 8 1 21t2.5 27.5t2.5 27.5t1 21q0 39 -13 39q-2 0 -6 -2q1 -3 1 -6t1 -5q1 -4 -4 -13l5 -21q0 1 -3.5 -7.5t-8 -19t-9.5 -19t-9 -8.5q-6 0 -13 8t-13 19.5t-9.5 25t-3.5 25.5q0 14 1 16t3.5 -1.5t7 -9t10.5 -5.5q14 0 12 20q-2 14 -13 14q-3 0 -7 -0.5t-6 2.5 l-23 14q-7 4 -5.5 8.5t5.5 13.5t8.5 25t4.5 43q0 2 -1.5 0t-2.5 -4q10 43 32 102.5t54 135.5q8 20 15.5 39.5t17.5 35.5q42 67 92.5 107.5t100.5 52.5q8 -2 12 -2q6 0 18 4t21 3l11 -1l154 11h183l135 -28l151 -48l98 -39l73 -38l18 -30l10 -5q8 -4 19 -16t23 -15 q75 -75 84 -236q-3 -23 -12 -63.5t-25 -98.5q-12 -44 -27.5 -97.5t-34.5 -115.5q-8 -26 -20 -64t-28 -88q0 13 -3 2t-8 -29t-11.5 -35t-13.5 -17h-15q-1 0 -3.5 -3.5t-3.5 -4.5zM822 849q4 -3 9 -3q7 0 7 11q-2 18 -10 18q-6 0 -6 -26zM1060 912q-17 0 -17 -5q0 -16 17 -11 q2 0 2 5q0 2 -0.5 4.5t-1.5 6.5zM1084 887q-12 0 -15.5 -3t-2.5 -7t5.5 -7t7.5 -3q7 0 7 9q0 2 -0.5 4.5t-1.5 6.5zM1139 792q-24 0 -24 -6q0 -1 22 -19q2 2 2 25zM1017 846q36 -24 54 -24q7 0 7 4q0 9 -16 15.5t-27 6.5q-4 0 -8.5 -0.5t-9.5 -1.5zM806 817q-14 0 -11.5 -5 t10 -7.5t14 1.5t0.5 22q-4 14 -13 -11zM780 807q-4 0 -4 -1q0 -2 1.5 -1.5t2.5 2.5zM759 681q1 -7 7 -7q4 0 9 6.5t5 11.5q10 5 -8 5q-15 -1 -15 -10zM644 367q5 0 5 2q0 5 -5 10.5t-10 5.5q-3 0 -3 -1q-5 -6 9 -15q4 -4 4 -2zM1262 349v-8q-8 0 -5 2.5t5 5.5zM1042 325 q-13 -10 -13 -22q0 -9 4.5 -9t9.5 4.5t9.5 12.5t4.5 15q0 17 -15 -1zM1031 267q8 3 8 6q0 7 -11 7q-5 0 -5.5 -2.5t1.5 -5.5t4.5 -5t2.5 0z" glyph-name="FLW196" horiz-adv-x="1375" unicode="Д"/><glyph d="M994 880l-120 -5q-14 -1 -40 -14.5t-48 -13.5q-33 0 -33 44q-25 0 -25 -8q0 -2 1.5 -6.5t1.5 -6.5q0 -7 -20 -7q-57 0 -88 -67q-24 -52 -24 -116q0 -23 12.5 -27t41.5 -4h26q42 0 53 11l11 11q3 3 4.5 -1t1.5 -5q-1 -4 -1 -10l10 -11l-0.5 -3.5t-0.5 -2.5q0 -5 7.5 -8.5 t9.5 -5.5q16 0 21 5q3 13 17 8.5t22 -4.5q5 0 8 1l5 21q2 10 7 3q4 -7 3.5 -9.5t-3 -4.5t-5.5 -4t-3 -7q0 -9 3.5 -29.5t3.5 -32.5q-13 -6 -12 -12t9 -10.5t19.5 -5.5t19.5 2q-21 -83 -135 -119q-36 -11 -96 -20t-137 -9q-24 0 -34.5 -16.5t-16.5 -38.5t-13 -44.5t-23 -35.5 q0 -22 -32 -60q-6 -8 -6 -10q0 1 14.5 -4.5t32.5 -12.5t35 -13t22 -6q6 0 14.5 4.5t8.5 12.5q0 6 -4 8t-8.5 3t-8.5 1t-4 2t10 7.5t10 10.5l42 -21l20 10q18 8 26 8q3 0 -1 -6.5t-10 -14.5t-11.5 -15t-5.5 -8q0 -13 34 -16q7 3 10.5 16.5t5.5 14.5q11 -38 38 -38 q11 0 25.5 12.5t35.5 12.5q12 0 20.5 -9.5t12.5 -9.5t4 22q14 -6 14 -17q0 -13 -16 -24.5t-30 -11.5q-10 -22 -20.5 -46t-31.5 -32l6 23q-2 -7 -26.5 -21.5t-58.5 -33.5l-104 -57h-236l-63 -16q-12 -3 -30 -3q-56 0 -95 43q-27 29 -40 73.5t-13 85.5q0 21 3 49.5t3 65.5 q2 0 10.5 26.5t17.5 58.5t16.5 59t7.5 29l10 11l11 26q5 11 5.5 16t4.5 5l210 434q4 8 5 12.5t1 0.5q0 2 -1 3l16 16q11 20 35.5 46.5t52.5 52t55 46.5t43 30q22 13 34 13l256 26q58 6 65 6q23 0 29 -6q23 -4 51.5 -5.5t53.5 -6.5t42 -17.5t17 -40.5q0 -4 -0.5 -9t-1.5 -10 q1 -3 7 -19.5t13.5 -36.5t7.5 -21v-8t-1 -9l10 -5q1 -1 1.5 -6.5t0.5 -6.5q0 -5 -12 -29l-11 -16q-11 5 -16.5 1.5t-9.5 -9.5t-7 -11.5t-10 -5.5q-6 0 -14 4t-19 4q-12 0 -18 -9zM826 681q7 -10 6 -12.5t-6.5 -2t-12.5 2.5t-13 2q-13 -7 -21 -7q-5 0 -5 3q0 6 12 13t20 7 q10 0 20 -6zM800 618q-5 0 -5 -1t1.5 -1.5t3.5 2.5zM790 540q-20 -9 -20 -14q0 -6 28 -5q16 1 27 4.5t11 8.5q0 8 -19 15q-8 1 -15 0.5t-12 -9.5zM706 529q-13 4 -14 -9q-2 -5 9.5 -5h21.5q22 0 22 14q0 11 -13 11q-12 0 -26 -11zM275 334q-17 0 -17 -13q0 -19 13 -19 q5 0 6 7q1 6 -2 25zM533 158q-11 2 -12.5 -1.5t1.5 -6.5t7 -2t4 10zM492 131q6 5 6 8q0 10 -18 10q-6 0 -4.5 -4.5t6 -9t8 -7.5t0.5 0q2 0 2 3zM575 131q5 0 5 2q-1 5 -6 8t-9 3q-3 0 -3 -1q-2 -4 3.5 -9t8.5 -5q1 0 1 2zM502 110q9 -4 16 -2t9.5 6.5t0.5 10t-10 6.5 q-18 0 -18 -15q0 -2 2 -6zM711 105q-7 2 -8 -2.5t6 -4.5q2 0 2 7z" glyph-name="FLW197" horiz-adv-x="1131" unicode="Å"/><glyph d="M994 880l-120 -5q-14 -1 -40 -14.5t-48 -13.5q-33 0 -33 44q-25 0 -25 -8q0 -2 1.5 -6.5t1.5 -6.5q0 -7 -20 -7q-57 0 -88 -67q-24 -52 -24 -116q0 -23 12.5 -27t41.5 -4h26q42 0 53 11l11 11q3 3 4.5 -1t1.5 -5q-1 -4 -1 -10l10 -11l-0.5 -3.5t-0.5 -2.5q0 -5 7.5 -8.5 t9.5 -5.5q16 0 21 5q3 13 17 8.5t22 -4.5q5 0 8 1l5 21q2 10 7 3q4 -7 3.5 -9.5t-3 -4.5t-5.5 -4t-3 -7q0 -9 3.5 -29.5t3.5 -32.5q-13 -6 -12 -12t9 -10.5t19.5 -5.5t19.5 2q-21 -83 -135 -119q-36 -11 -96 -20t-137 -9q-24 0 -34.5 -16.5t-16.5 -38.5t-13 -44.5t-23 -35.5 q0 -22 -32 -60q-6 -8 -6 -10q0 1 14.5 -4.5t32.5 -12.5t35 -13t22 -6q6 0 14.5 4.5t8.5 12.5q0 6 -4 8t-8.5 3t-8.5 1t-4 2t10 7.5t10 10.5l42 -21l20 10q18 8 26 8q3 0 -1 -6.5t-10 -14.5t-11.5 -15t-5.5 -8q0 -13 34 -16q7 3 10.5 16.5t5.5 14.5q11 -38 38 -38 q11 0 25.5 12.5t35.5 12.5q12 0 20.5 -9.5t12.5 -9.5t4 22q14 -6 14 -17q0 -13 -16 -24.5t-30 -11.5q-10 -22 -20.5 -46t-31.5 -32l6 23q-2 -7 -26.5 -21.5t-58.5 -33.5l-104 -57h-236l-63 -16q-12 -3 -30 -3q-56 0 -95 43q-27 29 -40 73.5t-13 85.5q0 21 3 49.5t3 65.5 q2 0 10.5 26.5t17.5 58.5t16.5 59t7.5 29l10 11l11 26q5 11 5.5 16t4.5 5l210 434q4 8 5 12.5t1 0.5q0 2 -1 3l16 16q11 20 35.5 46.5t52.5 52t55 46.5t43 30q22 13 34 13l256 26q58 6 65 6q23 0 29 -6q23 -4 51.5 -5.5t53.5 -6.5t42 -17.5t17 -40.5q0 -4 -0.5 -9t-1.5 -10 q1 -3 7 -19.5t13.5 -36.5t7.5 -21v-8t-1 -9l10 -5q1 -1 1.5 -6.5t0.5 -6.5q0 -5 -12 -29l-11 -16q-11 5 -16.5 1.5t-9.5 -9.5t-7 -11.5t-10 -5.5q-6 0 -14 4t-19 4q-12 0 -18 -9zM826 681q7 -10 6 -12.5t-6.5 -2t-12.5 2.5t-13 2q-13 -7 -21 -7q-5 0 -5 3q0 6 12 13t20 7 q10 0 20 -6zM800 618q-5 0 -5 -1t1.5 -1.5t3.5 2.5zM790 540q-20 -9 -20 -14q0 -6 28 -5q16 1 27 4.5t11 8.5q0 8 -19 15q-8 1 -15 0.5t-12 -9.5zM706 529q-13 4 -14 -9q-2 -5 9.5 -5h21.5q22 0 22 14q0 11 -13 11q-12 0 -26 -11zM275 334q-17 0 -17 -13q0 -19 13 -19 q5 0 6 7q1 6 -2 25zM533 158q-11 2 -12.5 -1.5t1.5 -6.5t7 -2t4 10zM492 131q6 5 6 8q0 10 -18 10q-6 0 -4.5 -4.5t6 -9t8 -7.5t0.5 0q2 0 2 3zM575 131q5 0 5 2q-1 5 -6 8t-9 3q-3 0 -3 -1q-2 -4 3.5 -9t8.5 -5q1 0 1 2zM502 110q9 -4 16 -2t9.5 6.5t0.5 10t-10 6.5 q-18 0 -18 -15q0 -2 2 -6zM711 105q-7 2 -8 -2.5t6 -4.5q2 0 2 7z" glyph-name="FLW197" horiz-adv-x="1131" unicode="Е"/><glyph d="M742 1143l50 -320l77 -193h24q13 78 51 231q-2 6 10 31q48 148 145 194q6 0 14 -3.5t12 -3.5q3 0 11 2l15 -11q12 -9 34 -17q6 2 12.5 4.5t13.5 6.5l22 11q1 0 5 -1t5 -1q5 0 14.5 3.5t15.5 3.5q42 -27 42 -91q0 -54 -21.5 -113.5t-46.5 -118.5l-51 -121h23l199 193 l252 320q7 1 13.5 1.5t12.5 0.5q130 0 141 -191q8 -26 8 -41q0 -23 -13 -43t-29 -39.5t-30.5 -39t-18.5 -41.5l-29 -12q0 -14 -11.5 -27.5t-29.5 -27t-39.5 -27t-42.5 -27.5q-43 -29 -64.5 -55t-22.5 -46l-2 -40q-3 -4 -11.5 -10l-17 -12t-15.5 -11.5t-7 -10.5q0 -10 14 -24 l11 -10q13 -12 57 -65q31 -38 60.5 -81t57.5 -91q18 -31 33.5 -59.5t15.5 -44.5q0 -7 -9 -12.5t-20 -10.5t-20.5 -11t-11.5 -15l-6 -34l-11 -6q-18 -10 -52 -21l-32 -10q-12 -4 -22 -4q-12 0 -19 3l-16 7q-18 8 -42 4l-5 -10q-39 0 -73 18q-20 10 -31 25t-17 29t-8 24.5 l-2 10.5q-4 11 -14.5 16.5t-18.5 5.5q-2 0 -4 2l-16 10v27l-18 12t-9 18q0 7 1 11l-21 21q-6 6 -10.5 5t-8.5 -4.5l-8 -7t-7 -3.5q-7 0 -13 16l-10 26q-36 4 -79 -43q-28 -108 -100 -164q-23 -19 -41.5 -32.5t-31.5 -22.5l-15 -10l-3 -0.5t-1 -0.5l-23 -11l-24 -5 q-11 -3 -20.5 1.5t-12.5 4.5l-21 5l-11 7q1 -1 -12 -7l-9 10q-12 13 -16 41q-37 15 -37 89q0 7 2 19.5t4.5 25.5t4.5 25.5t2 20.5q0 45 -46 41l-27 -26q-16 -16 -23 -16q-1 0 -4 6.5t-10 8.5q-3 1 -14 -5l-34 -21q-9 -19 -23 -26.5t-29 -14.5l-17 -27l-22 -10 q-11 -5 -24 -7.5t-29 -16.5q0 -3 -18.5 -22t-47.5 -39t-64 -35.5t-68 -10.5l1 10q-10 3 -19 3q-11 0 -30.5 -8.5t-35.5 -8.5q-11 0 -20 4l-26 10q-26 11 -38 21l-8 6l16 34q5 10 0 15.5t-12 9l-14 7t-7 9.5t30 35q56 52 134.5 114.5t179.5 133.5q34 24 58 40.5t40 25.5 l17 10q32 20 32 30q0 7 -13 15.5t-13 22.5l24 40q9 15 9 31q0 35 -44 85l-34 37q-16 18 -21 33q-1 2 12 24l-21 12q8 21 8 37q0 13 -6.5 37.5t-6.5 37.5q0 24 18 48t32 44q69 95 133 143t129 48q5 0 11.5 -0.5t13.5 -1.5zM1193 272q-8 -4 -13 -4q-6 0 -6 10t-6 10 q-18 0 -9 -10.5t22.5 -19.5t16.5 -10q1 0 1 2q0 9 -6 22zM1269 176v27q-16 0 -16 -5q0 -1 7.5 -9.5t8.5 -12.5zM665 266q-8 -8 -13 -13.5t-7 -8.5q-2 -2 0 -2q2 1 16.5 10t29 19.5t10.5 10.5q-6 0 -13 -10t-12 -10q-4 0 -11 4zM546 197l-17 -27q1 1 8 6t15 11.5t7 7.5 q-2 2 -13 2z" glyph-name="FLW198" horiz-adv-x="1865" unicode="Æ"/><glyph d="M742 1143l50 -320l77 -193h24q13 78 51 231q-2 6 10 31q48 148 145 194q6 0 14 -3.5t12 -3.5q3 0 11 2l15 -11q12 -9 34 -17q6 2 12.5 4.5t13.5 6.5l22 11q1 0 5 -1t5 -1q5 0 14.5 3.5t15.5 3.5q42 -27 42 -91q0 -54 -21.5 -113.5t-46.5 -118.5l-51 -121h23l199 193 l252 320q7 1 13.5 1.5t12.5 0.5q130 0 141 -191q8 -26 8 -41q0 -23 -13 -43t-29 -39.5t-30.5 -39t-18.5 -41.5l-29 -12q0 -14 -11.5 -27.5t-29.5 -27t-39.5 -27t-42.5 -27.5q-43 -29 -64.5 -55t-22.5 -46l-2 -40q-3 -4 -11.5 -10l-17 -12t-15.5 -11.5t-7 -10.5q0 -10 14 -24 l11 -10q13 -12 57 -65q31 -38 60.5 -81t57.5 -91q18 -31 33.5 -59.5t15.5 -44.5q0 -7 -9 -12.5t-20 -10.5t-20.5 -11t-11.5 -15l-6 -34l-11 -6q-18 -10 -52 -21l-32 -10q-12 -4 -22 -4q-12 0 -19 3l-16 7q-18 8 -42 4l-5 -10q-39 0 -73 18q-20 10 -31 25t-17 29t-8 24.5 l-2 10.5q-4 11 -14.5 16.5t-18.5 5.5q-2 0 -4 2l-16 10v27l-18 12t-9 18q0 7 1 11l-21 21q-6 6 -10.5 5t-8.5 -4.5l-8 -7t-7 -3.5q-7 0 -13 16l-10 26q-36 4 -79 -43q-28 -108 -100 -164q-23 -19 -41.5 -32.5t-31.5 -22.5l-15 -10l-3 -0.5t-1 -0.5l-23 -11l-24 -5 q-11 -3 -20.5 1.5t-12.5 4.5l-21 5l-11 7q1 -1 -12 -7l-9 10q-12 13 -16 41q-37 15 -37 89q0 7 2 19.5t4.5 25.5t4.5 25.5t2 20.5q0 45 -46 41l-27 -26q-16 -16 -23 -16q-1 0 -4 6.5t-10 8.5q-3 1 -14 -5l-34 -21q-9 -19 -23 -26.5t-29 -14.5l-17 -27l-22 -10 q-11 -5 -24 -7.5t-29 -16.5q0 -3 -18.5 -22t-47.5 -39t-64 -35.5t-68 -10.5l1 10q-10 3 -19 3q-11 0 -30.5 -8.5t-35.5 -8.5q-11 0 -20 4l-26 10q-26 11 -38 21l-8 6l16 34q5 10 0 15.5t-12 9l-14 7t-7 9.5t30 35q56 52 134.5 114.5t179.5 133.5q34 24 58 40.5t40 25.5 l17 10q32 20 32 30q0 7 -13 15.5t-13 22.5l24 40q9 15 9 31q0 35 -44 85l-34 37q-16 18 -21 33q-1 2 12 24l-21 12q8 21 8 37q0 13 -6.5 37.5t-6.5 37.5q0 24 18 48t32 44q69 95 133 143t129 48q5 0 11.5 -0.5t13.5 -1.5zM1193 272q-8 -4 -13 -4q-6 0 -6 10t-6 10 q-18 0 -9 -10.5t22.5 -19.5t16.5 -10q1 0 1 2q0 9 -6 22zM1269 176v27q-16 0 -16 -5q0 -1 7.5 -9.5t8.5 -12.5zM665 266q-8 -8 -13 -13.5t-7 -8.5q-2 -2 0 -2q2 1 16.5 10t29 19.5t10.5 10.5q-6 0 -13 -10t-12 -10q-4 0 -11 4zM546 197l-17 -27q1 1 8 6t15 11.5t7 7.5 q-2 2 -13 2z" glyph-name="FLW198" horiz-adv-x="1865" unicode="Ж"/><glyph d="M673 493l-6 -15q47 -2 118 -8t166 -17q29 -3 40 -12t7 -20l-18 -42q-26 -62 -140 -178q-15 -3 -12.5 1.5t12 12t19.5 17.5t10 19q0 13 -7 5.5t-8 -8.5l-18 -16q-3 -3 -6 -1.5t-6 -3.5l-79 -63q-3 -3 -29 -26l-5 -5l-38 -6q-7 -9 -17 -22.5t-7 -24.5q-6 -6 -10.5 -5 t-8.5 4.5t-6 7.5t-4 4q-28 -7 -60.5 -26.5t-64.5 -50.5q-20 -20 -39.5 -40t-39.5 -40q-46 -46 -91 -66q-31 -15 -71 -15q-5 0 -15 1t-13 1q-95 5 -146 60q-41 46 -56 123l-3 16q-3 15 11.5 39.5t29.5 39.5q4 -2 21 8.5t35.5 23.5t32.5 24.5t13 11.5l22 15l38 16l15 11 q3 1 6.5 -0.5t5.5 -1.5q3 0 6 7l44 5l36 11q1 1 5.5 -0.5t7.5 -1.5q26 0 51 -9.5t42 -9.5l9 -16q12 0 15.5 -8t14.5 -8l12 -10l5 -26q0 1 4 1.5t3 0.5q3 0 3 -4t3 -4v-26q0 -16 9 -16t28 16.5t40 38.5t40 45t28 37l-133 56q-130 17 -179 53q-21 14 -32 37h-1v1q-6 17 -6 37 q0 15 2 15h14q8 0 24 8t16 11q0 5 -8 10q2 3 7.5 11.5t11 19t10 21t4.5 16.5q0 5 -8 5q3 7 10 14q3 3 5 2q2 0 0 -5l-3 -21q0 -1 3 -1h4q4 0 18 3q12 3 15 1.5t4 -4.5t4 -6t16 -3q1 1 12 5t12 15l14 11q3 2 3.5 9t8.5 7l7 -11q6 -9 21 -9q24 0 57 13.5t68.5 33t69 41.5 t57.5 38q13 9 19.5 19.5t8 21t1 18.5t-0.5 12q0 66 -35 66q-5 0 -20 -6.5t-20 -3.5l-8 -10l-156 -63q-24 -10 -46 -10q-47 0 -73 46t-26 117q0 47 25.5 76t93.5 60l15 7.5t18.5 9t16.5 8.5t8 5l69 27q37 14 75 14q52 0 92.5 -12t57.5 -46q3 -7 8 -25t9.5 -37t7 -33l2.5 -14 q16 -66 73 -83q7 -5 12.5 -10.5t10.5 -12.5l18 -26q11 -17 28 -31t17 -19q0 -6 8 -6l7 -21q3 -10 1 -22t-5.5 -25t-7.5 -28t-4 -32t-4 -28.5t-16 -36.5q-2 -5 -10 -9.5t-17.5 -9t-17.5 -9t-9 -9.5q-87 -5 -193 -18l-73 -9q-17 -2 -35 -4t-37 -3zM904 321q3 -5 10 -5 q18 0 23 21q0 3 -5 5q-11 2 -20 -4.5t-8 -16.5zM704 154q-10 4 -7 -6q0 -2 2 -2q3 3 5 8z" glyph-name="FLW199" horiz-adv-x="1123" unicode="Ç"/><glyph d="M673 493l-6 -15q47 -2 118 -8t166 -17q29 -3 40 -12t7 -20l-18 -42q-26 -62 -140 -178q-15 -3 -12.5 1.5t12 12t19.5 17.5t10 19q0 13 -7 5.5t-8 -8.5l-18 -16q-3 -3 -6 -1.5t-6 -3.5l-79 -63q-3 -3 -29 -26l-5 -5l-38 -6q-7 -9 -17 -22.5t-7 -24.5q-6 -6 -10.5 -5 t-8.5 4.5t-6 7.5t-4 4q-28 -7 -60.5 -26.5t-64.5 -50.5q-20 -20 -39.5 -40t-39.5 -40q-46 -46 -91 -66q-31 -15 -71 -15q-5 0 -15 1t-13 1q-95 5 -146 60q-41 46 -56 123l-3 16q-3 15 11.5 39.5t29.5 39.5q4 -2 21 8.5t35.5 23.5t32.5 24.5t13 11.5l22 15l38 16l15 11 q3 1 6.5 -0.5t5.5 -1.5q3 0 6 7l44 5l36 11q1 1 5.5 -0.5t7.5 -1.5q26 0 51 -9.5t42 -9.5l9 -16q12 0 15.5 -8t14.5 -8l12 -10l5 -26q0 1 4 1.5t3 0.5q3 0 3 -4t3 -4v-26q0 -16 9 -16t28 16.5t40 38.5t40 45t28 37l-133 56q-130 17 -179 53q-21 14 -32 37h-1v1q-6 17 -6 37 q0 15 2 15h14q8 0 24 8t16 11q0 5 -8 10q2 3 7.5 11.5t11 19t10 21t4.5 16.5q0 5 -8 5q3 7 10 14q3 3 5 2q2 0 0 -5l-3 -21q0 -1 3 -1h4q4 0 18 3q12 3 15 1.5t4 -4.5t4 -6t16 -3q1 1 12 5t12 15l14 11q3 2 3.5 9t8.5 7l7 -11q6 -9 21 -9q24 0 57 13.5t68.5 33t69 41.5 t57.5 38q13 9 19.5 19.5t8 21t1 18.5t-0.5 12q0 66 -35 66q-5 0 -20 -6.5t-20 -3.5l-8 -10l-156 -63q-24 -10 -46 -10q-47 0 -73 46t-26 117q0 47 25.5 76t93.5 60l15 7.5t18.5 9t16.5 8.5t8 5l69 27q37 14 75 14q52 0 92.5 -12t57.5 -46q3 -7 8 -25t9.5 -37t7 -33l2.5 -14 q16 -66 73 -83q7 -5 12.5 -10.5t10.5 -12.5l18 -26q11 -17 28 -31t17 -19q0 -6 8 -6l7 -21q3 -10 1 -22t-5.5 -25t-7.5 -28t-4 -32t-4 -28.5t-16 -36.5q-2 -5 -10 -9.5t-17.5 -9t-17.5 -9t-9 -9.5q-87 -5 -193 -18l-73 -9q-17 -2 -35 -4t-37 -3zM904 321q3 -5 10 -5 q18 0 23 21q0 3 -5 5q-11 2 -20 -4.5t-8 -16.5zM704 154q-10 4 -7 -6q0 -2 2 -2q3 3 5 8z" glyph-name="FLW199" horiz-adv-x="1123" unicode="З"/><glyph d="M162 -112q-142 10 -142 92q0 22 10 43t26.5 43.5t37.5 47t43 52.5l28 36l-1 10q0 2 4 8t4 5q0 31 22.5 86t48.5 121q66 223 204 440q7 46 64 89q10 7 40 22t61.5 28.5t56 22.5t24.5 5t12 -10q14 -7 11 -12.5t-12 -12t-18.5 -14.5t-9.5 -20q0 -5 4.5 -13.5t4.5 -17.5 q0 -15 -28 -36q10 0 12 -4.5t-1 -11.5t-10 -15.5t-14 -15.5l-15 -5q-8 -8 -10 -11.5t-2 -5t1 -3t-1 -6.5l-18 -32q-4 -7 -4 -16q0 -6 8 -6q6 0 9 1l-1 -15q0 -3 -8.5 -16.5t-21.5 -30t-28 -32t-28 -21.5l5 -5q-5 5 -3 -1t6 -14.5t8.5 -15.5t4.5 -4q0 -4 -23 -12l-16 -11 q-37 -26 -50 -93q-3 -14 -10 -24t-7 -20q0 -6 4 -6q10 0 21.5 12t25 29t28.5 36.5t30 34.5q19 19 52 45.5t73 64.5q10 10 28.5 27.5t26.5 30.5l27 20q2 1 25.5 23t51.5 49t50 51t20 29q13 9 34.5 28t41.5 38t35 33.5t15 15.5q11 24 34 36t55 38l42 5q13 10 44 10l-3 -10 q8 0 7 -3.5t4 -3.5q1 0 11 2l21 -11q12 -7 24.5 -11t7.5 -20l-4 -11q-3 -11 -3 -20q0 -22 15 -37.5t40 -15.5l2 -16l9 -21q1 -2 -5 -8t-13.5 -12.5t-13.5 -13t-6 -9.5q0 -10 -11.5 -33t-37.5 -54l2 -11l-43 -68q-3 -5 -8 -16l-3 -15q2 -21 -7 -41t-21 -39.5t-24 -37.5 t-17 -35l-8.5 -34t-17.5 -33q-13 -16 -21 -24.5t-8 -16.5q0 -5 3 -11.5t4 -10.5q-13 -13 -11.5 -22.5t1.5 -14.5q1 -1 -4.5 -9.5t-12.5 -18.5t-12.5 -18.5t-4.5 -10.5l6 -11l-35 -78q-10 -5 -20 -14t-16.5 -19.5t-7.5 -21.5t7 -19l-18 -20q-25 -28 -31 -55q-4 -22 -18 -34 v-11q0 -3 -7 -8t-7 -6q2 -2 6 -2l-26 -42q-12 -20 -38 -20l-20 -11q-4 -1 -8 0q-4 3 -12 -5l-80 10l-7 11q-1 2 -6.5 6.5t-10.5 3.5v37l-6 5q-2 2 0 6q0 4 8 10q9 32 24.5 72t39.5 87q20 38 40.5 76.5t40.5 76.5q105 206 104 269q3 3 -9 -8.5t-31.5 -32t-44.5 -46.5 t-48.5 -51.5t-43 -47.5t-28.5 -34q0 1 -13 -11t-28.5 -26.5t-28 -27t-10.5 -14.5q-6 -4 -22.5 -16t-34.5 -27.5t-33 -32.5t-18 -33l-25 -16q-4 -3 -13.5 -13t-19.5 -21.5t-17.5 -21.5t-7.5 -13q0 -2 -22 -15q-18 -10 -30 -22t-23 -26t-23 -32t-30 -40q-82 -97 -142 -97 q-15 0 -29 8zM485 610q-10 -7 -10 -12q0 -2 3 -3q5 -2 14.5 3t9.5 12q0 2 -1 3q-6 1 -16 -3zM533 825l2 2v1q-1 0 -4 -1t-2 -2h4zM1261 893q6 3 -1.5 1.5t1.5 -1.5zM627 1008q-13 -11 -9.5 -19t16.5 3q10 9 11 13t-2 5t-8 0.5t-8 -2.5z" glyph-name="FLW200" horiz-adv-x="1355" unicode="È"/><glyph d="M162 -112q-142 10 -142 92q0 22 10 43t26.5 43.5t37.5 47t43 52.5l28 36l-1 10q0 2 4 8t4 5q0 31 22.5 86t48.5 121q66 223 204 440q7 46 64 89q10 7 40 22t61.5 28.5t56 22.5t24.5 5t12 -10q14 -7 11 -12.5t-12 -12t-18.5 -14.5t-9.5 -20q0 -5 4.5 -13.5t4.5 -17.5 q0 -15 -28 -36q10 0 12 -4.5t-1 -11.5t-10 -15.5t-14 -15.5l-15 -5q-8 -8 -10 -11.5t-2 -5t1 -3t-1 -6.5l-18 -32q-4 -7 -4 -16q0 -6 8 -6q6 0 9 1l-1 -15q0 -3 -8.5 -16.5t-21.5 -30t-28 -32t-28 -21.5l5 -5q-5 5 -3 -1t6 -14.5t8.5 -15.5t4.5 -4q0 -4 -23 -12l-16 -11 q-37 -26 -50 -93q-3 -14 -10 -24t-7 -20q0 -6 4 -6q10 0 21.5 12t25 29t28.5 36.5t30 34.5q19 19 52 45.5t73 64.5q10 10 28.5 27.5t26.5 30.5l27 20q2 1 25.5 23t51.5 49t50 51t20 29q13 9 34.5 28t41.5 38t35 33.5t15 15.5q11 24 34 36t55 38l42 5q13 10 44 10l-3 -10 q8 0 7 -3.5t4 -3.5q1 0 11 2l21 -11q12 -7 24.5 -11t7.5 -20l-4 -11q-3 -11 -3 -20q0 -22 15 -37.5t40 -15.5l2 -16l9 -21q1 -2 -5 -8t-13.5 -12.5t-13.5 -13t-6 -9.5q0 -10 -11.5 -33t-37.5 -54l2 -11l-43 -68q-3 -5 -8 -16l-3 -15q2 -21 -7 -41t-21 -39.5t-24 -37.5 t-17 -35l-8.5 -34t-17.5 -33q-13 -16 -21 -24.5t-8 -16.5q0 -5 3 -11.5t4 -10.5q-13 -13 -11.5 -22.5t1.5 -14.5q1 -1 -4.5 -9.5t-12.5 -18.5t-12.5 -18.5t-4.5 -10.5l6 -11l-35 -78q-10 -5 -20 -14t-16.5 -19.5t-7.5 -21.5t7 -19l-18 -20q-25 -28 -31 -55q-4 -22 -18 -34 v-11q0 -3 -7 -8t-7 -6q2 -2 6 -2l-26 -42q-12 -20 -38 -20l-20 -11q-4 -1 -8 0q-4 3 -12 -5l-80 10l-7 11q-1 2 -6.5 6.5t-10.5 3.5v37l-6 5q-2 2 0 6q0 4 8 10q9 32 24.5 72t39.5 87q20 38 40.5 76.5t40.5 76.5q105 206 104 269q3 3 -9 -8.5t-31.5 -32t-44.5 -46.5 t-48.5 -51.5t-43 -47.5t-28.5 -34q0 1 -13 -11t-28.5 -26.5t-28 -27t-10.5 -14.5q-6 -4 -22.5 -16t-34.5 -27.5t-33 -32.5t-18 -33l-25 -16q-4 -3 -13.5 -13t-19.5 -21.5t-17.5 -21.5t-7.5 -13q0 -2 -22 -15q-18 -10 -30 -22t-23 -26t-23 -32t-30 -40q-82 -97 -142 -97 q-15 0 -29 8zM485 610q-10 -7 -10 -12q0 -2 3 -3q5 -2 14.5 3t9.5 12q0 2 -1 3q-6 1 -16 -3zM533 825l2 2v1q-1 0 -4 -1t-2 -2h4zM1261 893q6 3 -1.5 1.5t1.5 -1.5zM627 1008q-13 -11 -9.5 -19t16.5 3q10 9 11 13t-2 5t-8 0.5t-8 -2.5z" glyph-name="FLW200" horiz-adv-x="1355" unicode="И"/><glyph d="M162 -112q-142 10 -142 92q0 22 10 43t26.5 43.5t37.5 47t43 52.5l28 36l-1 10q0 2 4 8t4 5q0 31 22.5 86t48.5 121q66 223 204 440q7 46 64 89q10 7 40 22t61.5 28.5t56 22.5t24.5 5t12 -10q14 -7 11 -12.5t-12 -12t-18.5 -14.5t-9.5 -20q0 -5 4.5 -13.5t4.5 -17.5 q0 -15 -28 -36q10 0 12 -4.5t-1 -11.5t-10 -15.5t-14 -15.5l-15 -5q-8 -8 -10 -11.5t-2 -5t1 -3t-1 -6.5l-18 -32q-4 -7 -4 -16q0 -6 8 -6q6 0 9 1l-1 -15q0 -3 -8.5 -16.5t-21.5 -30t-28 -32t-28 -21.5l5 -5q-5 5 -3 -1t6 -14.5t8.5 -15.5t4.5 -4q0 -4 -23 -12l-16 -11 q-37 -26 -50 -93q-3 -14 -10 -24t-7 -20q0 -6 4 -6q10 0 21.5 12t25 29t28.5 36.5t30 34.5q19 19 52 45.5t73 64.5q10 10 28.5 27.5t26.5 30.5l27 20q2 1 25.5 23t51.5 49t50 51t20 29q13 9 34.5 28t41.5 38t35 33.5t15 15.5q11 24 34 36t55 38l42 5q13 10 44 10l-3 -10 q8 0 7 -3.5t4 -3.5q1 0 11 2l21 -11q12 -7 24.5 -11t7.5 -20l-4 -11q-3 -11 -3 -20q0 -22 15 -37.5t40 -15.5l2 -16l9 -21q1 -2 -5 -8t-13.5 -12.5t-13.5 -13t-6 -9.5q0 -10 -11.5 -33t-37.5 -54l2 -11l-43 -68q-3 -5 -8 -16l-3 -15q2 -21 -7 -41t-21 -39.5t-24 -37.5 t-17 -35l-8.5 -34t-17.5 -33q-13 -16 -21 -24.5t-8 -16.5q0 -5 3 -11.5t4 -10.5q-13 -13 -11.5 -22.5t1.5 -14.5q1 -1 -4.5 -9.5t-12.5 -18.5t-12.5 -18.5t-4.5 -10.5l6 -11l-35 -78q-10 -5 -20 -14t-16.5 -19.5t-7.5 -21.5t7 -19l-18 -20q-25 -28 -31 -55q-4 -22 -18 -34 v-11q0 -3 -7 -8t-7 -6q2 -2 6 -2l-26 -42q-12 -20 -38 -20l-20 -11q-4 -1 -8 0q-4 3 -12 -5l-80 10l-7 11q-1 2 -6.5 6.5t-10.5 3.5v37l-6 5q-2 2 0 6q0 4 8 10q9 32 24.5 72t39.5 87q20 38 40.5 76.5t40.5 76.5q105 206 104 269q3 3 -9 -8.5t-31.5 -32t-44.5 -46.5 t-48.5 -51.5t-43 -47.5t-28.5 -34q0 1 -13 -11t-28.5 -26.5t-28 -27t-10.5 -14.5q-6 -4 -22.5 -16t-34.5 -27.5t-33 -32.5t-18 -33l-25 -16q-4 -3 -13.5 -13t-19.5 -21.5t-17.5 -21.5t-7.5 -13q0 -2 -22 -15q-18 -10 -30 -22t-23 -26t-23 -32t-30 -40q-82 -97 -142 -97 q-15 0 -29 8zM485 610q-10 -7 -10 -12q0 -2 3 -3q5 -2 14.5 3t9.5 12q0 2 -1 3q-6 1 -16 -3zM533 825l2 2v1q-1 0 -4 -1t-2 -2h4zM1261 893q6 3 -1.5 1.5t1.5 -1.5zM627 1008q-13 -11 -9.5 -19t16.5 3q10 9 11 13t-2 5t-8 0.5t-8 -2.5zM947 1309q20 -4 41 -8t38 -12 t27.5 -21.5t10.5 -36.5q0 -7 -3.5 -20.5t-7.5 -27.5t-7.5 -26t-4.5 -16l-4 -4q-22 -22 -22 -33l-10 -10l-11 -16q-8 -13 -16 -26.5t-17.5 -24.5t-22 -18t-29.5 -7q-12 0 -24 2t-27 2q-23 -2 -26 -12l-11 -5q-19 -8 -28 -8q-37 0 -37 51q0 36 35 123q55 139 156 154z" glyph-name="FLW201" horiz-adv-x="1355" unicode="É"/><glyph d="M162 -112q-142 10 -142 92q0 22 10 43t26.5 43.5t37.5 47t43 52.5l28 36l-1 10q0 2 4 8t4 5q0 31 22.5 86t48.5 121q66 223 204 440q7 46 64 89q10 7 40 22t61.5 28.5t56 22.5t24.5 5t12 -10q14 -7 11 -12.5t-12 -12t-18.5 -14.5t-9.5 -20q0 -5 4.5 -13.5t4.5 -17.5 q0 -15 -28 -36q10 0 12 -4.5t-1 -11.5t-10 -15.5t-14 -15.5l-15 -5q-8 -8 -10 -11.5t-2 -5t1 -3t-1 -6.5l-18 -32q-4 -7 -4 -16q0 -6 8 -6q6 0 9 1l-1 -15q0 -3 -8.5 -16.5t-21.5 -30t-28 -32t-28 -21.5l5 -5q-5 5 -3 -1t6 -14.5t8.5 -15.5t4.5 -4q0 -4 -23 -12l-16 -11 q-37 -26 -50 -93q-3 -14 -10 -24t-7 -20q0 -6 4 -6q10 0 21.5 12t25 29t28.5 36.5t30 34.5q19 19 52 45.5t73 64.5q10 10 28.5 27.5t26.5 30.5l27 20q2 1 25.5 23t51.5 49t50 51t20 29q13 9 34.5 28t41.5 38t35 33.5t15 15.5q11 24 34 36t55 38l42 5q13 10 44 10l-3 -10 q8 0 7 -3.5t4 -3.5q1 0 11 2l21 -11q12 -7 24.5 -11t7.5 -20l-4 -11q-3 -11 -3 -20q0 -22 15 -37.5t40 -15.5l2 -16l9 -21q1 -2 -5 -8t-13.5 -12.5t-13.5 -13t-6 -9.5q0 -10 -11.5 -33t-37.5 -54l2 -11l-43 -68q-3 -5 -8 -16l-3 -15q2 -21 -7 -41t-21 -39.5t-24 -37.5 t-17 -35l-8.5 -34t-17.5 -33q-13 -16 -21 -24.5t-8 -16.5q0 -5 3 -11.5t4 -10.5q-13 -13 -11.5 -22.5t1.5 -14.5q1 -1 -4.5 -9.5t-12.5 -18.5t-12.5 -18.5t-4.5 -10.5l6 -11l-35 -78q-10 -5 -20 -14t-16.5 -19.5t-7.5 -21.5t7 -19l-18 -20q-25 -28 -31 -55q-4 -22 -18 -34 v-11q0 -3 -7 -8t-7 -6q2 -2 6 -2l-26 -42q-12 -20 -38 -20l-20 -11q-4 -1 -8 0q-4 3 -12 -5l-80 10l-7 11q-1 2 -6.5 6.5t-10.5 3.5v37l-6 5q-2 2 0 6q0 4 8 10q9 32 24.5 72t39.5 87q20 38 40.5 76.5t40.5 76.5q105 206 104 269q3 3 -9 -8.5t-31.5 -32t-44.5 -46.5 t-48.5 -51.5t-43 -47.5t-28.5 -34q0 1 -13 -11t-28.5 -26.5t-28 -27t-10.5 -14.5q-6 -4 -22.5 -16t-34.5 -27.5t-33 -32.5t-18 -33l-25 -16q-4 -3 -13.5 -13t-19.5 -21.5t-17.5 -21.5t-7.5 -13q0 -2 -22 -15q-18 -10 -30 -22t-23 -26t-23 -32t-30 -40q-82 -97 -142 -97 q-15 0 -29 8zM485 610q-10 -7 -10 -12q0 -2 3 -3q5 -2 14.5 3t9.5 12q0 2 -1 3q-6 1 -16 -3zM533 825l2 2v1q-1 0 -4 -1t-2 -2h4zM1261 893q6 3 -1.5 1.5t1.5 -1.5zM627 1008q-13 -11 -9.5 -19t16.5 3q10 9 11 13t-2 5t-8 0.5t-8 -2.5zM947 1309q20 -4 41 -8t38 -12 t27.5 -21.5t10.5 -36.5q0 -7 -3.5 -20.5t-7.5 -27.5t-7.5 -26t-4.5 -16l-4 -4q-22 -22 -22 -33l-10 -10l-11 -16q-8 -13 -16 -26.5t-17.5 -24.5t-22 -18t-29.5 -7q-12 0 -24 2t-27 2q-23 -2 -26 -12l-11 -5q-19 -8 -28 -8q-37 0 -37 51q0 36 35 123q55 139 156 154z" glyph-name="FLW201" horiz-adv-x="1355" unicode="Й"/><glyph d="M539 636l199 193l252 320q7 1 13.5 1.5t12.5 0.5q130 0 141 -191q8 -26 8 -41q0 -23 -13 -43t-29 -39.5t-30.5 -39t-18.5 -41.5l-29 -12q0 -14 -11.5 -27.5t-29.5 -27t-39.5 -27t-42.5 -27.5q-43 -29 -64.5 -55t-22.5 -46l-2 -40q-3 -4 -11.5 -10l-17 -12t-15.5 -11.5 t-7 -10.5q0 -10 14 -24l11 -10q13 -12 57 -65q31 -38 60.5 -81t57.5 -91q18 -31 33.5 -59.5t15.5 -44.5q0 -7 -9 -12.5t-20 -10.5t-20.5 -11t-11.5 -15l-6 -34l-11 -6q-18 -10 -52 -21l-32 -10q-12 -4 -22 -4q-12 0 -19 3l-16 7q-18 8 -42 4l-5 -10q-39 0 -73 18 q-20 10 -31 25t-17 29t-8 24.5l-2 10.5q-4 11 -14.5 16.5t-18.5 5.5q-2 0 -4 2l-16 10v27l-18 12t-9 18q0 7 1 11l-21 21q-6 6 -10.5 5t-8.5 -4.5l-8 -7t-7 -3.5q-7 0 -13 16l-10 26q-50 6 -126 -103l-62 -90q-35 -50 -64 -69l-15 -10q-12 12 -24 12q-10 0 -17.5 -4.5 t-14 -9.5t-13 -8t-15.5 -1l-21 5l-16 11q-2 2 0.5 16t3.5 15q-40 7 -56.5 31.5t-16.5 66.5q0 63 62 189q20 39 31 62t14 30q24 56 30 98q37 73 69 230q21 106 24 120q8 34 16.5 63.5t18.5 54.5q46 118 134 160q6 0 14 -3.5t12 -3.5q3 0 11 2l15 -11q6 -4 20.5 -9.5t31 -11.5 t31.5 -12.5t22 -13.5l32 -31l10 -16q7 -10 7 -36q0 -7 -1.5 -19.5t-3.5 -24.5t-5.5 -21t-6.5 -9l-48 -73l-19 -4q0 -16 4.5 -26t-0.5 -23l-11 -31l-21 -5q5 -26 -15 -51q-4 -5 -4 -9q0 -8 45 -8zM482 678q-16 0 -17.5 -4t3.5 -6.5t11 -1t3 11.5zM513 272q-8 -4 -13 -4 q-6 0 -6 10t-6 10q-18 0 -9 -10.5t22.5 -19.5t16.5 -10q1 0 1 2q0 9 -6 22zM589 176v27q-16 0 -16 -5q0 -1 7.5 -9.5t8.5 -12.5z" glyph-name="FLW202" horiz-adv-x="1185" unicode="Ê"/><glyph d="M539 636l199 193l252 320q7 1 13.5 1.5t12.5 0.5q130 0 141 -191q8 -26 8 -41q0 -23 -13 -43t-29 -39.5t-30.5 -39t-18.5 -41.5l-29 -12q0 -14 -11.5 -27.5t-29.5 -27t-39.5 -27t-42.5 -27.5q-43 -29 -64.5 -55t-22.5 -46l-2 -40q-3 -4 -11.5 -10l-17 -12t-15.5 -11.5 t-7 -10.5q0 -10 14 -24l11 -10q13 -12 57 -65q31 -38 60.5 -81t57.5 -91q18 -31 33.5 -59.5t15.5 -44.5q0 -7 -9 -12.5t-20 -10.5t-20.5 -11t-11.5 -15l-6 -34l-11 -6q-18 -10 -52 -21l-32 -10q-12 -4 -22 -4q-12 0 -19 3l-16 7q-18 8 -42 4l-5 -10q-39 0 -73 18 q-20 10 -31 25t-17 29t-8 24.5l-2 10.5q-4 11 -14.5 16.5t-18.5 5.5q-2 0 -4 2l-16 10v27l-18 12t-9 18q0 7 1 11l-21 21q-6 6 -10.5 5t-8.5 -4.5l-8 -7t-7 -3.5q-7 0 -13 16l-10 26q-50 6 -126 -103l-62 -90q-35 -50 -64 -69l-15 -10q-12 12 -24 12q-10 0 -17.5 -4.5 t-14 -9.5t-13 -8t-15.5 -1l-21 5l-16 11q-2 2 0.5 16t3.5 15q-40 7 -56.5 31.5t-16.5 66.5q0 63 62 189q20 39 31 62t14 30q24 56 30 98q37 73 69 230q21 106 24 120q8 34 16.5 63.5t18.5 54.5q46 118 134 160q6 0 14 -3.5t12 -3.5q3 0 11 2l15 -11q6 -4 20.5 -9.5t31 -11.5 t31.5 -12.5t22 -13.5l32 -31l10 -16q7 -10 7 -36q0 -7 -1.5 -19.5t-3.5 -24.5t-5.5 -21t-6.5 -9l-48 -73l-19 -4q0 -16 4.5 -26t-0.5 -23l-11 -31l-21 -5q5 -26 -15 -51q-4 -5 -4 -9q0 -8 45 -8zM482 678q-16 0 -17.5 -4t3.5 -6.5t11 -1t3 11.5zM513 272q-8 -4 -13 -4 q-6 0 -6 10t-6 10q-18 0 -9 -10.5t22.5 -19.5t16.5 -10q1 0 1 2q0 9 -6 22zM589 176v27q-16 0 -16 -5q0 -1 7.5 -9.5t8.5 -12.5z" glyph-name="FLW202" horiz-adv-x="1185" unicode="К"/><glyph d="M138 -32q-14 -3 -26 -3q-22 0 -39.5 10t-29 26.5t-17.5 38t-6 43.5q0 10 4.5 21.5t10.5 22.5t10.5 21t4.5 16q0 9 -9 13.5t-9 15.5q0 4 11.5 15l11.5 11q0 19 14.5 39t16.5 24q12 4 13 19.5t8 22.5l26 26l63 110q1 2 3 3t2 8l16 15q-1 11 -5 12.5t-8.5 -1.5t-9.5 -7.5 t-8 -4.5q-1 0 -1 2q0 24 10 34.5t22 17.5t22.5 15.5t12.5 28.5q1 11 3.5 14t5.5 2t5.5 -3.5t3.5 -2.5q23 0 32 24.5t9 50.5q0 16 8.5 24.5t19.5 13.5t19.5 10.5t8.5 15.5q0 9 -1 16.5t12 7.5q10 0 7.5 -14t-9 -30.5t-13.5 -29.5t-7 -11q0 -16 13 -16q59 0 59 27q0 2 -2 8 l11 16q-19 10 -19 37q0 15 8.5 30t22.5 15q10 0 19 -9q8 3 8 10q0 5 -3.5 11t-6.5 11.5t-4 8.5t5 2q13 -2 21 -3.5t9 -1.5q16 0 16 12q0 6 -3 13l-10 5q-2 1 -2 5.5v4.5q0 4 3.5 10t3.5 12q13 7 8 18.5t-5 25.5q0 11 18 11q15 0 15 -8t10 -8q9 0 9 8q0 5 3 10t3 19 q0 55 28 55q10 0 20.5 11.5t14.5 10.5q3 -1 7 -17q-1 0 13 11.5t33.5 25t40 25t32.5 11.5q16 0 16 -15q0 -16 13 -16q7 0 9 2.5t3.5 6t4 7t10.5 4.5q27 5 44.5 -14.5t28 -50t15 -67t4.5 -66.5v-110q0 -10 -2 -25t-4 -30.5t-4 -29.5t-2 -23q0 -13 1 -18q-2 -61 -7 -153 t-13 -214q-2 -31 -5 -64t-11 -66q-3 -16 -13 -40.5t-25.5 -48t-35.5 -40t-44 -16.5q-49 0 -78.5 23t-60.5 54l-16 16l-15 21q-6 7 -6 28v9.5t1 12.5v21q0 7 -3.5 25.5t-7.5 18.5l-5 10q-2 4 -4 1.5t-5 -6.5t-6 -6.5t-6 1.5q1 16 3.5 41t6.5 58q2 14 8 22t6 22q0 10 -6 31 t-6 34q0 16 10 47q1 3 4.5 11t6.5 16.5t3.5 15t-4.5 6.5q-20 0 -50 -27.5t-61 -84.5q-23 -42 -57 -106.5t-82 -148.5q-89 -155 -170 -199zM102 219q-4 7 -12 6q-9 -3 -8.5 -7.5t5 -6.5t10 -1t5.5 9zM133 413q4 0 4 -1q0 -2 -1.5 -1.5t-2.5 2.5zM138 415v9q8 0 4.5 -3 t-4.5 -6zM144 429q5 0 5 -1q0 -2 -3.5 -0.5t-1.5 1.5zM149 434q4 0 4 -1q0 -2 -1.5 -1.5t-2.5 2.5zM164 460q8 0 5.5 -1.5t-5.5 1.5zM170 465q5 0 5 -1l-2 -2q-1 0 -3 3zM175 471q4 0 4 -1t-1 -2q-2 -2 -3 3zM180 481q5 0 5 -1l-2 -2q-1 0 -3 3zM306 570q-18 0 -24 -13.5 t8 -13.5q8 -1 15.5 7.5t0.5 19.5zM337 601q4 0 4 1q0 9 -4 -1zM463 834v8q6 0 4 -2t-4 -6z" glyph-name="FLW203" horiz-adv-x="923" unicode="Ë"/><glyph d="M138 -32q-14 -3 -26 -3q-22 0 -39.5 10t-29 26.5t-17.5 38t-6 43.5q0 10 4.5 21.5t10.5 22.5t10.5 21t4.5 16q0 9 -9 13.5t-9 15.5q0 4 11.5 15l11.5 11q0 19 14.5 39t16.5 24q12 4 13 19.5t8 22.5l26 26l63 110q1 2 3 3t2 8l16 15q-1 11 -5 12.5t-8.5 -1.5t-9.5 -7.5 t-8 -4.5q-1 0 -1 2q0 24 10 34.5t22 17.5t22.5 15.5t12.5 28.5q1 11 3.5 14t5.5 2t5.5 -3.5t3.5 -2.5q23 0 32 24.5t9 50.5q0 16 8.5 24.5t19.5 13.5t19.5 10.5t8.5 15.5q0 9 -1 16.5t12 7.5q10 0 7.5 -14t-9 -30.5t-13.5 -29.5t-7 -11q0 -16 13 -16q59 0 59 27q0 2 -2 8 l11 16q-19 10 -19 37q0 15 8.5 30t22.5 15q10 0 19 -9q8 3 8 10q0 5 -3.5 11t-6.5 11.5t-4 8.5t5 2q13 -2 21 -3.5t9 -1.5q16 0 16 12q0 6 -3 13l-10 5q-2 1 -2 5.5v4.5q0 4 3.5 10t3.5 12q13 7 8 18.5t-5 25.5q0 11 18 11q15 0 15 -8t10 -8q9 0 9 8q0 5 3 10t3 19 q0 55 28 55q10 0 20.5 11.5t14.5 10.5q3 -1 7 -17q-1 0 13 11.5t33.5 25t40 25t32.5 11.5q16 0 16 -15q0 -16 13 -16q7 0 9 2.5t3.5 6t4 7t10.5 4.5q27 5 44.5 -14.5t28 -50t15 -67t4.5 -66.5v-110q0 -10 -2 -25t-4 -30.5t-4 -29.5t-2 -23q0 -13 1 -18q-2 -61 -7 -153 t-13 -214q-2 -31 -5 -64t-11 -66q-3 -16 -13 -40.5t-25.5 -48t-35.5 -40t-44 -16.5q-49 0 -78.5 23t-60.5 54l-16 16l-15 21q-6 7 -6 28v9.5t1 12.5v21q0 7 -3.5 25.5t-7.5 18.5l-5 10q-2 4 -4 1.5t-5 -6.5t-6 -6.5t-6 1.5q1 16 3.5 41t6.5 58q2 14 8 22t6 22q0 10 -6 31 t-6 34q0 16 10 47q1 3 4.5 11t6.5 16.5t3.5 15t-4.5 6.5q-20 0 -50 -27.5t-61 -84.5q-23 -42 -57 -106.5t-82 -148.5q-89 -155 -170 -199zM102 219q-4 7 -12 6q-9 -3 -8.5 -7.5t5 -6.5t10 -1t5.5 9zM133 413q4 0 4 -1q0 -2 -1.5 -1.5t-2.5 2.5zM138 415v9q8 0 4.5 -3 t-4.5 -6zM144 429q5 0 5 -1q0 -2 -3.5 -0.5t-1.5 1.5zM149 434q4 0 4 -1q0 -2 -1.5 -1.5t-2.5 2.5zM164 460q8 0 5.5 -1.5t-5.5 1.5zM170 465q5 0 5 -1l-2 -2q-1 0 -3 3zM175 471q4 0 4 -1t-1 -2q-2 -2 -3 3zM180 481q5 0 5 -1l-2 -2q-1 0 -3 3zM306 570q-18 0 -24 -13.5 t8 -13.5q8 -1 15.5 7.5t0.5 19.5zM337 601q4 0 4 1q0 9 -4 -1zM463 834v8q6 0 4 -2t-4 -6z" glyph-name="FLW203" horiz-adv-x="923" unicode="Л"/><glyph d="M958 -9v115q-11 13 -11 27q0 13 7 25t16 25.5t16 30.5t7 40t16.5 57t38 76t44 90.5t34.5 100.5q13 7 13 23q0 10 -6.5 23t-15.5 13q-5 0 -14 -6t-9 -12l-10 -5q-7 -4 -7.5 -11t1.5 -14.5t5 -14t3 -11.5q0 -12 -23 -12l-11 -10l-36 -5q-27 -40 -27 -63l-10 -5 q-18 -10 -37 -56q-3 -8 -7 -20.5t-8 -24t-6.5 -19.5t-4.5 -8t-4.5 6t-5.5 6q2 10 -1.5 16t-9 7.5t-10.5 -0.5t-5 -7v-42q0 -9 10 -16q7 -3 -12 -34t-46 -68t-52.5 -69.5t-32.5 -39.5q-1 -1 -4.5 -12t-10 -23t-16.5 -21.5t-25 -9.5q-10 -46 -59 -46q-8 0 -21.5 4.5 t-27.5 10.5t-27.5 10.5t-21.5 4.5q-42 29 -57 126q-5 34 -8 77.5t-3 95.5v131v13t1 18v32q0 86 -11 86q-6 0 -14 -19.5t-16 -44t-13 -47t-5 -28.5l-10 -5q-8 -5 -7 -12q1 -5 2 -12t2 -17q0 -5 -9 -7t-9 -7q-1 -4 9 -20q3 -7 0.5 -9.5t-7.5 -4t-9.5 -3.5t-4.5 -7 q0 -12 1.5 -16.5t-11.5 -4.5q-30 0 -30 -43l10 -5q19 -9 19 -15q0 -1 -8 -5t-17 -10t-17 -14.5t-8 -18.5t3.5 -14t-6.5 -4q-8 0 -4.5 -12.5t3.5 -20.5q0 -12 -11.5 -22t-11.5 -18q0 -9 8 -12t8 -12q0 -10 -6.5 -23t-6.5 -20q0 -5 3 -9l-11 -5q-8 -27 -11 -27l-2 8t-6.5 17.5 t-11.5 17t-16 5.5q-3 -6 -3 -13q0 -11 10.5 -22t10.5 -22q0 -3 -7.5 -22.5t-7.5 -31.5q0 -5 2 -15l-10 -11q-20 -21 -65 -21q-46 0 -61 16l-15 16q-18 0 -29 12.5t-18 32t-9.5 42.5t-2.5 43q0 62 26 142q6 18 24 60l37.5 87.5t37 85t22.5 53.5q17 44 29 83.5t19 75.5 q3 15 16 45t27 60.5t26 55t14 28.5q13 16 27 33.5t31 23.5l5 11q46 3 75 47q10 15 21.5 35.5t27.5 39t37.5 31.5t51.5 13q133 0 148 -93q1 -2 9 -10.5t8 -13.5q0 -4 -1 -7l11 -11q0 -11 4 -26.5t9.5 -31.5t9.5 -30t4 -22q0 -7 -1 -10l10 -21q0 -1 -2 -3t-2 -3 q1 -5 2.5 -15.5l3.5 -24.5q11 -48 16.5 -85t13.5 -37q-1 -5 -1.5 -9.5t-0.5 -9.5q0 -45 31 -45q15 0 34 28q44 62 127.5 164t207.5 244q12 9 26 23.5t30 29t32.5 24.5t32.5 10q29 0 50 -23t38 -48q-3 -16 7 -19l8 -2q5 -2 6 -5l31 -6q9 -2 24.5 -9t31 -16t28 -19t16.5 -18 q-1 -3 -1 -11q0 -11 10 -32.5t10 -39.5q0 -14 -8 -37t-8 -34q0 -3 2 -9l-10 -5l-6 -10q-10 -16 -10 -37q-33 0 -33 -43q0 -10 1 -15l-10 -15q-7 -10 -11 -29t2 -25q-45 -56 -106 -254l-46 -149q-11 -36 -21.5 -64.5t-21.5 -49.5q-11 -11 -11 -21l-10 -5q-5 -12 -25.5 -34 t-44 -43.5t-43.5 -38t-24 -16.5h-11q-45 0 -95 27q-86 47 -87 47zM1521 610q-9 -19 -13 -19v1q0 6 13 18zM1523 614l11 5q-10 -6 -13 -9q1 1 1 2t1 2zM1094 687q-3 1 -8 1q-4 0 -4 -1q-2 -4 1 -7t7 -2q4 0 4 9zM1147 667q20 0 20 6q0 8 -13 9q-9 0 -9 -7q0 -2 2 -8z M1000 426q-5 0 -5 1l2 2q1 1 3 -3zM963 392v-8q-5 0 -3 2.5t3 5.5zM136 295q4 -16 13 -16q14 0 14 23q0 17 -16 17q-14 0 -11 -24zM225 227q9 0 11.5 -2.5l2.5 -2.5q2 0 6.5 6t4.5 10q0 10 -13 10q-14 0 -14 -12q0 -3 2 -9zM251 176v9q-6 0 -3 -3zM272 106q-5 0 -5 -1 t1.5 -1.5t3.5 2.5z" glyph-name="FLW204" horiz-adv-x="1615" unicode="Ì"/><glyph d="M958 -9v115q-11 13 -11 27q0 13 7 25t16 25.5t16 30.5t7 40t16.5 57t38 76t44 90.5t34.5 100.5q13 7 13 23q0 10 -6.5 23t-15.5 13q-5 0 -14 -6t-9 -12l-10 -5q-7 -4 -7.5 -11t1.5 -14.5t5 -14t3 -11.5q0 -12 -23 -12l-11 -10l-36 -5q-27 -40 -27 -63l-10 -5 q-18 -10 -37 -56q-3 -8 -7 -20.5t-8 -24t-6.5 -19.5t-4.5 -8t-4.5 6t-5.5 6q2 10 -1.5 16t-9 7.5t-10.5 -0.5t-5 -7v-42q0 -9 10 -16q7 -3 -12 -34t-46 -68t-52.5 -69.5t-32.5 -39.5q-1 -1 -4.5 -12t-10 -23t-16.5 -21.5t-25 -9.5q-10 -46 -59 -46q-8 0 -21.5 4.5 t-27.5 10.5t-27.5 10.5t-21.5 4.5q-42 29 -57 126q-5 34 -8 77.5t-3 95.5v131v13t1 18v32q0 86 -11 86q-6 0 -14 -19.5t-16 -44t-13 -47t-5 -28.5l-10 -5q-8 -5 -7 -12q1 -5 2 -12t2 -17q0 -5 -9 -7t-9 -7q-1 -4 9 -20q3 -7 0.5 -9.5t-7.5 -4t-9.5 -3.5t-4.5 -7 q0 -12 1.5 -16.5t-11.5 -4.5q-30 0 -30 -43l10 -5q19 -9 19 -15q0 -1 -8 -5t-17 -10t-17 -14.5t-8 -18.5t3.5 -14t-6.5 -4q-8 0 -4.5 -12.5t3.5 -20.5q0 -12 -11.5 -22t-11.5 -18q0 -9 8 -12t8 -12q0 -10 -6.5 -23t-6.5 -20q0 -5 3 -9l-11 -5q-8 -27 -11 -27l-2 8t-6.5 17.5 t-11.5 17t-16 5.5q-3 -6 -3 -13q0 -11 10.5 -22t10.5 -22q0 -3 -7.5 -22.5t-7.5 -31.5q0 -5 2 -15l-10 -11q-20 -21 -65 -21q-46 0 -61 16l-15 16q-18 0 -29 12.5t-18 32t-9.5 42.5t-2.5 43q0 62 26 142q6 18 24 60l37.5 87.5t37 85t22.5 53.5q17 44 29 83.5t19 75.5 q3 15 16 45t27 60.5t26 55t14 28.5q13 16 27 33.5t31 23.5l5 11q46 3 75 47q10 15 21.5 35.5t27.5 39t37.5 31.5t51.5 13q133 0 148 -93q1 -2 9 -10.5t8 -13.5q0 -4 -1 -7l11 -11q0 -11 4 -26.5t9.5 -31.5t9.5 -30t4 -22q0 -7 -1 -10l10 -21q0 -1 -2 -3t-2 -3 q1 -5 2.5 -15.5l3.5 -24.5q11 -48 16.5 -85t13.5 -37q-1 -5 -1.5 -9.5t-0.5 -9.5q0 -45 31 -45q15 0 34 28q44 62 127.5 164t207.5 244q12 9 26 23.5t30 29t32.5 24.5t32.5 10q29 0 50 -23t38 -48q-3 -16 7 -19l8 -2q5 -2 6 -5l31 -6q9 -2 24.5 -9t31 -16t28 -19t16.5 -18 q-1 -3 -1 -11q0 -11 10 -32.5t10 -39.5q0 -14 -8 -37t-8 -34q0 -3 2 -9l-10 -5l-6 -10q-10 -16 -10 -37q-33 0 -33 -43q0 -10 1 -15l-10 -15q-7 -10 -11 -29t2 -25q-45 -56 -106 -254l-46 -149q-11 -36 -21.5 -64.5t-21.5 -49.5q-11 -11 -11 -21l-10 -5q-5 -12 -25.5 -34 t-44 -43.5t-43.5 -38t-24 -16.5h-11q-45 0 -95 27q-86 47 -87 47zM1521 610q-9 -19 -13 -19v1q0 6 13 18zM1523 614l11 5q-10 -6 -13 -9q1 1 1 2t1 2zM1094 687q-3 1 -8 1q-4 0 -4 -1q-2 -4 1 -7t7 -2q4 0 4 9zM1147 667q20 0 20 6q0 8 -13 9q-9 0 -9 -7q0 -2 2 -8z M1000 426q-5 0 -5 1l2 2q1 1 3 -3zM963 392v-8q-5 0 -3 2.5t3 5.5zM136 295q4 -16 13 -16q14 0 14 23q0 17 -16 17q-14 0 -11 -24zM225 227q9 0 11.5 -2.5l2.5 -2.5q2 0 6.5 6t4.5 10q0 10 -13 10q-14 0 -14 -12q0 -3 2 -9zM251 176v9q-6 0 -3 -3zM272 106q-5 0 -5 -1 t1.5 -1.5t3.5 2.5z" glyph-name="FLW204" horiz-adv-x="1615" unicode="М"/><glyph d="M443 296q-40 -128 -75 -188q-58 -97 -134 -90q0 -2 -13.5 -8.5t-18.5 -6.5q4 3 3 4t-3 0l-5 -2q-3 -1 -2 -2l-19 5q-5 -5 -11.5 -4t-12.5 4.5l-12 7t-10 3.5q-2 0 -6.5 -3.5t-6.5 -3.5q-5 0 -8.5 -4t-9.5 -4q-14 0 -27.5 12t-24.5 29t-18 34t-7 28q0 7 2.5 25.5t7 38.5 t9.5 38t10 24q0 36 13.5 83.5t23.5 87.5q3 11 -6.5 21t-22 20t-23.5 20.5t-11 22.5q0 9 9 20t32 23l37 20q15 8 29 29t25.5 46t21.5 49.5t18 39.5l136 262q8 15 27.5 31t42.5 29t47 21t42 8q13 0 31.5 -10t36 -25t29.5 -33t12 -35q0 -2 -1.5 -2t-1.5 -1q0 2 21 -28 q27 -42 27 -88q0 -48 -30 -108q3 -27 -16 -64l-15 -27q-7 -13 -7 -24q0 -27 59 -27h73q37 35 37 58l15 16q52 55 82 146q41 126 54 149q39 68 121 92q105 -17 131 -73q9 0 7 -6t-2 -10l10 -10q16 -16 16 -51q0 -29 -10.5 -72t-32.5 -97q-9 -22 -23 -55t-33 -76 q-4 -11 -26 -70.5t-62 -166.5q-52 -144 -96 -234l-10 -6q-28 -19 -46.5 -67t-42.5 -105q-4 -4 -6 -16t-11 -12q-6 0 -7.5 5t-0.5 12t3 14t2 12q0 23 -6 23q-3 0 -9.5 -11.5t-15.5 -27.5t-18 -33t-16 -28q-9 -15 -17 -24t-16.5 -16.5t-18 -14.5t-21.5 -17l-9 -8l-6 -10 q-92 6 -92 119q0 111 40 190q-2 15 3 37t12 44.5t12.5 43t5.5 32.5q0 20 -20.5 24.5t-45.5 4.5h-32q-30 0 -66 -3z" glyph-name="FLW205" horiz-adv-x="1199" unicode="Í"/><glyph d="M443 296q-40 -128 -75 -188q-58 -97 -134 -90q0 -2 -13.5 -8.5t-18.5 -6.5q4 3 3 4t-3 0l-5 -2q-3 -1 -2 -2l-19 5q-5 -5 -11.5 -4t-12.5 4.5l-12 7t-10 3.5q-2 0 -6.5 -3.5t-6.5 -3.5q-5 0 -8.5 -4t-9.5 -4q-14 0 -27.5 12t-24.5 29t-18 34t-7 28q0 7 2.5 25.5t7 38.5 t9.5 38t10 24q0 36 13.5 83.5t23.5 87.5q3 11 -6.5 21t-22 20t-23.5 20.5t-11 22.5q0 9 9 20t32 23l37 20q15 8 29 29t25.5 46t21.5 49.5t18 39.5l136 262q8 15 27.5 31t42.5 29t47 21t42 8q13 0 31.5 -10t36 -25t29.5 -33t12 -35q0 -2 -1.5 -2t-1.5 -1q0 2 21 -28 q27 -42 27 -88q0 -48 -30 -108q3 -27 -16 -64l-15 -27q-7 -13 -7 -24q0 -27 59 -27h73q37 35 37 58l15 16q52 55 82 146q41 126 54 149q39 68 121 92q105 -17 131 -73q9 0 7 -6t-2 -10l10 -10q16 -16 16 -51q0 -29 -10.5 -72t-32.5 -97q-9 -22 -23 -55t-33 -76 q-4 -11 -26 -70.5t-62 -166.5q-52 -144 -96 -234l-10 -6q-28 -19 -46.5 -67t-42.5 -105q-4 -4 -6 -16t-11 -12q-6 0 -7.5 5t-0.5 12t3 14t2 12q0 23 -6 23q-3 0 -9.5 -11.5t-15.5 -27.5t-18 -33t-16 -28q-9 -15 -17 -24t-16.5 -16.5t-18 -14.5t-21.5 -17l-9 -8l-6 -10 q-92 6 -92 119q0 111 40 190q-2 15 3 37t12 44.5t12.5 43t5.5 32.5q0 20 -20.5 24.5t-45.5 4.5h-32q-30 0 -66 -3z" glyph-name="FLW205" horiz-adv-x="1199" unicode="Н"/><glyph d="M1047 725l-1 -5q-1 -4 0 -9t1 -9v-20q0 -197 -115 -391q-66 -113 -133 -159q-34 -23 -58 -23q9 0 9 -2l-13.5 -7t-30 -16t-31 -17t-15.5 -9q-30 -25 -38 -66q14 -4 10.5 -9t-13.5 -11.5t-20 -13.5t-10 -14q0 -1 2 -9l-37 -5q-16 -2 -28 -11t-22.5 -19t-20 -18t-18.5 -8 t-26.5 3t-26.5 3q-43 0 -64.5 15t-49.5 40q-11 59 -59 88q-34 20 -104 32q-11 11 -26 11l-10 10q-12 11 -26 23.5t-25.5 29.5t-19.5 39.5t-8 54.5q0 78 22 151q14 50 52 142l26 63l15 15q19 19 57 60t79.5 87t79.5 87t57 60l10 10q2 2 14 0.5t14 -1.5t13 8t24.5 15.5 t26.5 10.5t18 -7l8 -4l8 4q-10 21 1 24.5t30 12.5l11 5l5 11l7 -1q22 -5 32 -7.5t8 -2.5l5 -10q7 -16 20 -8t13 20q0 5 -8 10.5t-8 9.5q0 -1 7.5 7l7.5 8l-6 21q-25 18 -25 33q0 11 12 19t28.5 12.5t34 6.5t29.5 2q161 0 234 -103q65 -92 65 -269zM737 108l1 1q-2 -1 -6.5 0 t-3.5 1l4 -2q1 0 6 -3t-1 3zM633 825q-59 -29 -89 -147l-11 -5q1 -9 -7 -15.5t-19 -12t-20 -9.5t-9 -8q0 -5 9.5 -15t9.5 -19q-12 -16 -25 -48.5t-26.5 -71t-25.5 -78t-22 -69.5q-25 -78 -22 -141q39 -11 65 -11q105 0 162 144q7 19 15 37t15 34l10 5l37 131q2 9 4 25t5 36 q2 11 6 26t11 34l10 15q1 1 3 15.5t2 24.5q0 9 2.5 23.5t5.5 30t5.5 30t2.5 23.5q0 11 -5 11q0 33 -1.5 56.5t-3.5 37.5q-5 22 -12 33q-11 13 -22.5 1.5t-22 -33t-20 -47.5t-17.5 -43zM570 -2q-11 -4 -13 -8.5t1.5 -9t10 -7.5t13.5 -3q8 0 13 5t3 18q-2 17 -17 17 q-6 0 -11 -12z" glyph-name="FLW206" horiz-adv-x="1067" unicode="Î"/><glyph d="M1047 725l-1 -5q-1 -4 0 -9t1 -9v-20q0 -197 -115 -391q-66 -113 -133 -159q-34 -23 -58 -23q9 0 9 -2l-13.5 -7t-30 -16t-31 -17t-15.5 -9q-30 -25 -38 -66q14 -4 10.5 -9t-13.5 -11.5t-20 -13.5t-10 -14q0 -1 2 -9l-37 -5q-16 -2 -28 -11t-22.5 -19t-20 -18t-18.5 -8 t-26.5 3t-26.5 3q-43 0 -64.5 15t-49.5 40q-11 59 -59 88q-34 20 -104 32q-11 11 -26 11l-10 10q-12 11 -26 23.5t-25.5 29.5t-19.5 39.5t-8 54.5q0 78 22 151q14 50 52 142l26 63l15 15q19 19 57 60t79.5 87t79.5 87t57 60l10 10q2 2 14 0.5t14 -1.5t13 8t24.5 15.5 t26.5 10.5t18 -7l8 -4l8 4q-10 21 1 24.5t30 12.5l11 5l5 11l7 -1q22 -5 32 -7.5t8 -2.5l5 -10q7 -16 20 -8t13 20q0 5 -8 10.5t-8 9.5q0 -1 7.5 7l7.5 8l-6 21q-25 18 -25 33q0 11 12 19t28.5 12.5t34 6.5t29.5 2q161 0 234 -103q65 -92 65 -269zM737 108l1 1q-2 -1 -6.5 0 t-3.5 1l4 -2q1 0 6 -3t-1 3zM633 825q-59 -29 -89 -147l-11 -5q1 -9 -7 -15.5t-19 -12t-20 -9.5t-9 -8q0 -5 9.5 -15t9.5 -19q-12 -16 -25 -48.5t-26.5 -71t-25.5 -78t-22 -69.5q-25 -78 -22 -141q39 -11 65 -11q105 0 162 144q7 19 15 37t15 34l10 5l37 131q2 9 4 25t5 36 q2 11 6 26t11 34l10 15q1 1 3 15.5t2 24.5q0 9 2.5 23.5t5.5 30t5.5 30t2.5 23.5q0 11 -5 11q0 33 -1.5 56.5t-3.5 37.5q-5 22 -12 33q-11 13 -22.5 1.5t-22 -33t-20 -47.5t-17.5 -43zM570 -2q-11 -4 -13 -8.5t1.5 -9t10 -7.5t13.5 -3q8 0 13 5t3 18q-2 17 -17 17 q-6 0 -11 -12z" glyph-name="FLW206" horiz-adv-x="1067" unicode="О"/><glyph d="M1200 825q3 -84 -30 -190q-15 -46 -31.5 -91t-32.5 -91q-33 -181 -141 -372q-9 -3 -16 -11t-15.5 -16.5t-18 -15.5t-23.5 -7q0 -17 -16.5 -36t-35.5 -19q-10 0 -22.5 14t-23.5 14q-10 0 -18 -11t-16 -11l-36 31q-7 5 1 32q-23 0 -42.5 22.5t-19.5 40.5q0 8 1.5 18t1.5 23 t5.5 17.5t11 8.5t9.5 9.5t1 19.5l-6 25q-3 12 -3 22q0 23 7.5 42t7.5 39q0 8 -1 11l34 35q13 13 13 35q0 7 -2 22t-2 22q0 16 7.5 28.5t23.5 31.5l15 17q7 7 9 14q5 59 25 125.5t54 140.5q-49 -5 -87 -11t-66 -11q-81 -16 -81 -36l-19 -61q-4 -14 -11.5 -32t-16.5 -38 l-21 -47l-11 -37q-10 0 -10 -10l-2 -12q-2 -15 -5.5 -27t-5.5 -20q-3 -9 -3 -4q-7 -4 -12 -22t-9.5 -39t-9 -40t-11.5 -25l-10 -15q-42 -64 -58 -110q-14 -13 -33.5 -47t-19.5 -73v-8t1 -8q-3 2 -6.5 -4t-7.5 -14.5t-8.5 -15.5t-10.5 -7q-5 0 -15 2t-15 2q-3 -4 -5 -14 t-2.5 -19.5t1 -17t6.5 -5.5q6 5 12 11t13 11q19 0 19 -15q0 -12 -11.5 -20t-24.5 -8q-15 0 -33.5 9.5t-21.5 9.5q-2 -2 -5 -10.5t-7 -8.5q-5 0 -9 4l-16 -21q-1 -2 -12 -5t-19 -6q-5 5 -5 10q0 1 5 11.5t4 13.5q-11 18 -15.5 12t-7.5 -20.5t-7.5 -29t-15.5 -13.5l-89 11 q-24 3 -24 -9q0 -9 4 -17q2 -7 -8 -2t-10 20q0 13 8.5 34t8.5 37q-24 0 -24 62q0 54 14 84l10 21q6 11 2 18.5t-4 17.5q0 -2 7.5 15t19 38t24 39t21.5 18q10 0 19 -4q0 3 3.5 5t3.5 5q0 1 -2 5l11 6q2 2 2 3l-2 6l-5 6q-20 0 -37 -10q-3 8 -3 20q0 20 10 55t31 83l32.5 80 t44.5 113q1 4 10.5 18t20.5 30.5t19.5 31t7.5 18.5l40 26q1 0 2.5 12.5t3.5 25.5q-14 5 -39 15l-26 10q0 11 -5 11q-5 5 -13 16.5t-15 26t-10.5 28.5t1.5 23l11 21q6 11 8 29.5t5.5 36t11.5 30t25 12.5q12 0 28 -3l89 -16q19 -4 44 -5.5t54 -1.5q5 0 12 0.5t16 1.5l55 6 q10 2 36 0t64 -4l171 -9q44 -2 71 -4t36 -2q26 0 41 3q25 -3 59 -3q15 0 52 5t92 5q27 0 38.5 -14.5t20.5 -45.5q-5 -5 -7 -17t-5.5 -24t-11 -20.5t-23.5 -6.5q0 -9 -11 -17.5t-11 -26.5q0 -5 0.5 -12.5t0.5 -11.5h-2q1 0 5 -21t6 -35zM950 1086q-5 0 -5 1l2 2q1 1 3 -3z M290 594q3 -5 5 -5q5 0 5 5q0 2 -3.5 5.5t-7.5 4.5q-6 -2 -7 -5t8 -5zM212 505q-5 0 -5 -1q0 -2 1.5 -2t3.5 3zM196 410q-3 -3 -3 -7q0 -12 15 -12q6 0 11.5 6.5t4.5 11.5q-4 18 -17 18q-10 0 -11 -17zM306 332q-5 0 -5 -1t1.5 -1.5t3.5 2.5zM70 213v9q-6 0 -4 -3zM196 149 q-5 0 -5 -1t3.5 -3t1.5 4zM353 143q-6 2 -7 0t0.5 -4t4 -2t2.5 6zM149 122q20 0 20 8q0 7 -10 8t-10 -16zM343 75q5 2 5 10.5t-7 8.5q-5 0 -9 -3q-1 1 0.5 -2t4 -7t4.5 -6.5t2 -0.5zM311 54q6 -2 7 -2q7 0 7 11q0 18 -8 18q-6 0 -6 -27z" glyph-name="FLW207" horiz-adv-x="1279" unicode="Ï"/><glyph d="M1200 825q3 -84 -30 -190q-15 -46 -31.5 -91t-32.5 -91q-33 -181 -141 -372q-9 -3 -16 -11t-15.5 -16.5t-18 -15.5t-23.5 -7q0 -17 -16.5 -36t-35.5 -19q-10 0 -22.5 14t-23.5 14q-10 0 -18 -11t-16 -11l-36 31q-7 5 1 32q-23 0 -42.5 22.5t-19.5 40.5q0 8 1.5 18t1.5 23 t5.5 17.5t11 8.5t9.5 9.5t1 19.5l-6 25q-3 12 -3 22q0 23 7.5 42t7.5 39q0 8 -1 11l34 35q13 13 13 35q0 7 -2 22t-2 22q0 16 7.5 28.5t23.5 31.5l15 17q7 7 9 14q5 59 25 125.5t54 140.5q-49 -5 -87 -11t-66 -11q-81 -16 -81 -36l-19 -61q-4 -14 -11.5 -32t-16.5 -38 l-21 -47l-11 -37q-10 0 -10 -10l-2 -12q-2 -15 -5.5 -27t-5.5 -20q-3 -9 -3 -4q-7 -4 -12 -22t-9.5 -39t-9 -40t-11.5 -25l-10 -15q-42 -64 -58 -110q-14 -13 -33.5 -47t-19.5 -73v-8t1 -8q-3 2 -6.5 -4t-7.5 -14.5t-8.5 -15.5t-10.5 -7q-5 0 -15 2t-15 2q-3 -4 -5 -14 t-2.5 -19.5t1 -17t6.5 -5.5q6 5 12 11t13 11q19 0 19 -15q0 -12 -11.5 -20t-24.5 -8q-15 0 -33.5 9.5t-21.5 9.5q-2 -2 -5 -10.5t-7 -8.5q-5 0 -9 4l-16 -21q-1 -2 -12 -5t-19 -6q-5 5 -5 10q0 1 5 11.5t4 13.5q-11 18 -15.5 12t-7.5 -20.5t-7.5 -29t-15.5 -13.5l-89 11 q-24 3 -24 -9q0 -9 4 -17q2 -7 -8 -2t-10 20q0 13 8.5 34t8.5 37q-24 0 -24 62q0 54 14 84l10 21q6 11 2 18.5t-4 17.5q0 -2 7.5 15t19 38t24 39t21.5 18q10 0 19 -4q0 3 3.5 5t3.5 5q0 1 -2 5l11 6q2 2 2 3l-2 6l-5 6q-20 0 -37 -10q-3 8 -3 20q0 20 10 55t31 83l32.5 80 t44.5 113q1 4 10.5 18t20.5 30.5t19.5 31t7.5 18.5l40 26q1 0 2.5 12.5t3.5 25.5q-14 5 -39 15l-26 10q0 11 -5 11q-5 5 -13 16.5t-15 26t-10.5 28.5t1.5 23l11 21q6 11 8 29.5t5.5 36t11.5 30t25 12.5q12 0 28 -3l89 -16q19 -4 44 -5.5t54 -1.5q5 0 12 0.5t16 1.5l55 6 q10 2 36 0t64 -4l171 -9q44 -2 71 -4t36 -2q26 0 41 3q25 -3 59 -3q15 0 52 5t92 5q27 0 38.5 -14.5t20.5 -45.5q-5 -5 -7 -17t-5.5 -24t-11 -20.5t-23.5 -6.5q0 -9 -11 -17.5t-11 -26.5q0 -5 0.5 -12.5t0.5 -11.5h-2q1 0 5 -21t6 -35zM950 1086q-5 0 -5 1l2 2q1 1 3 -3z M290 594q3 -5 5 -5q5 0 5 5q0 2 -3.5 5.5t-7.5 4.5q-6 -2 -7 -5t8 -5zM212 505q-5 0 -5 -1q0 -2 1.5 -2t3.5 3zM196 410q-3 -3 -3 -7q0 -12 15 -12q6 0 11.5 6.5t4.5 11.5q-4 18 -17 18q-10 0 -11 -17zM306 332q-5 0 -5 -1t1.5 -1.5t3.5 2.5zM70 213v9q-6 0 -4 -3zM196 149 q-5 0 -5 -1t3.5 -3t1.5 4zM353 143q-6 2 -7 0t0.5 -4t4 -2t2.5 6zM149 122q20 0 20 8q0 7 -10 8t-10 -16zM343 75q5 2 5 10.5t-7 8.5q-5 0 -9 -3q-1 1 0.5 -2t4 -7t4.5 -6.5t2 -0.5zM311 54q6 -2 7 -2q7 0 7 11q0 18 -8 18q-6 0 -6 -27z" glyph-name="FLW207" horiz-adv-x="1279" unicode="П"/><glyph d="M789 725q0 7 1 11q-7 8 -4.5 26t7.5 38.5t10.5 39t5.5 26.5q0 23 -12 23q-5 0 -11 -3q-15 -10 -33.5 -14.5t-38.5 -10t-41.5 -15t-42.5 -30.5q-26 -21 -34.5 -43.5t-11 -51.5t-6 -66t-18.5 -88q-12 -23 5.5 -29.5t53.5 -6.5q84 0 88 -48q7 0 10.5 -3.5t6.5 -3.5t9 2l3 11 q1 3 3 12.5t5.5 21t7 22.5t7.5 17l11 21q6 11 9.5 29t6 38t3 40t0.5 35zM1136 865q1 -7 1 -13.5v-13.5q0 -28 -6 -53.5t-19 -52t-34 -55.5t-52 -66q-22 -26 -50 -55.5t-44 -45.5l-15 -16l-32 -21l1 -3.5t1 -2.5q0 -3 -3.5 -5t-3.5 -5l-11 -5l-3 -29q23 -20 23 -41 q0 -20 -22.5 -41.5t-52.5 -40t-60 -30.5t-47 -12l-246 42q-23 -120 -106 -217q-25 -28 -46 -45q-5 0 -5 -10l-16 -10l-36 -16q-10 -24 -42.5 -33.5t-60.5 -9.5q-60 0 -94.5 33.5t-28.5 93.5q17 20 17 51q0 10 5 18t5 20l10 10q0 22 9.5 42t16.5 42l26 73l11 5l5 11 q14 31 35 76.5t46 108.5q40 100 65.5 167t41.5 101q66 146 147 248q20 3 36 3q90 0 127 -66q6 -12 13.5 -26t21.5 -14q15 0 34 14.5t42.5 35t52 41.5t61.5 33q10 0 31 -1t31 -1q9 0 22.5 3t28.5 6.5t28.5 6.5t22.5 3q56 0 92.5 -34t36.5 -90q0 -21 -5 -39q6 -21 6 -33 q0 -27 -12 -36zM1050 695q0 -20 5.5 -17t11 15t7.5 25t-5 13q-19 0 -19 -36z" glyph-name="FLW208" horiz-adv-x="1163" unicode="Ð"/><glyph d="M789 725q0 7 1 11q-7 8 -4.5 26t7.5 38.5t10.5 39t5.5 26.5q0 23 -12 23q-5 0 -11 -3q-15 -10 -33.5 -14.5t-38.5 -10t-41.5 -15t-42.5 -30.5q-26 -21 -34.5 -43.5t-11 -51.5t-6 -66t-18.5 -88q-12 -23 5.5 -29.5t53.5 -6.5q84 0 88 -48q7 0 10.5 -3.5t6.5 -3.5t9 2l3 11 q1 3 3 12.5t5.5 21t7 22.5t7.5 17l11 21q6 11 9.5 29t6 38t3 40t0.5 35zM1136 865q1 -7 1 -13.5v-13.5q0 -28 -6 -53.5t-19 -52t-34 -55.5t-52 -66q-22 -26 -50 -55.5t-44 -45.5l-15 -16l-32 -21l1 -3.5t1 -2.5q0 -3 -3.5 -5t-3.5 -5l-11 -5l-3 -29q23 -20 23 -41 q0 -20 -22.5 -41.5t-52.5 -40t-60 -30.5t-47 -12l-246 42q-23 -120 -106 -217q-25 -28 -46 -45q-5 0 -5 -10l-16 -10l-36 -16q-10 -24 -42.5 -33.5t-60.5 -9.5q-60 0 -94.5 33.5t-28.5 93.5q17 20 17 51q0 10 5 18t5 20l10 10q0 22 9.5 42t16.5 42l26 73l11 5l5 11 q14 31 35 76.5t46 108.5q40 100 65.5 167t41.5 101q66 146 147 248q20 3 36 3q90 0 127 -66q6 -12 13.5 -26t21.5 -14q15 0 34 14.5t42.5 35t52 41.5t61.5 33q10 0 31 -1t31 -1q9 0 22.5 3t28.5 6.5t28.5 6.5t22.5 3q56 0 92.5 -34t36.5 -90q0 -21 -5 -39q6 -21 6 -33 q0 -27 -12 -36zM1050 695q0 -20 5.5 -17t11 15t7.5 25t-5 13q-19 0 -19 -36z" glyph-name="FLW208" horiz-adv-x="1163" unicode="Р"/><glyph d="M514 618q-14 -40 -42 -78q-23 -55 -37 -89.5t-19 -48.5q-14 -38 -23.5 -74.5t-14.5 -70.5q-1 -3 -3 -12.5t-4.5 -21t-4.5 -22.5t-2 -17q0 -27 20 -27q15 0 38 14t51 35t60 46.5t65 48.5q20 11 31 11q9 0 10 -7.5t1.5 -15.5t4 -12.5t16.5 1.5l5 10q3 6 8 11t6 21 q2 23 7 23t17.5 -9t24.5 -9l10 -10q13 0 32 -11t19 -23q0 -13 -14 -20t-30 -12t-30 -9.5t-14 -10.5q0 -12 10 -12q3 0 11 3l6 11q1 1 3 -2l2 -3q0 -3 -12 -12l-14 -11q-7 -6 -7 -11q0 -16 8 -16t33 20l33 29q17 14 27 14q6 0 6 -10t-5.5 -32t-5.5 -39q14 -6 20.5 6.5 t11 30.5t10.5 33.5t19 15.5q12 0 11 -7t-7 -16.5t-12.5 -20t-5.5 -16.5q-7 0 -10.5 -7.5t-5 -16t-2.5 -16t-3 -7.5l-5 -11q-34 -12 -44 -12q-21 0 -21 -14q0 -10 7.5 -20t7.5 -8q0 -7 -9 -20.5t-20 -24.5l-5 -11q-4 -9 -25.5 -23.5t-50 -30t-60.5 -30.5t-59 -25l-46 -17 q1 0 9 -4t8 -7t-1 -4l-42 -5q0 13 -7.5 11.5t-17 -8.5t-18 -15t-10.5 -8q-10 0 -14.5 4t-7 9.5t-5.5 9.5t-9 4q-8 0 -20.5 -7.5t-21.5 -7.5q-12 0 -16 13l-10 15q-1 2 -34 35q-14 14 -17.5 35t-9 41.5t-19 36.5t-46.5 20l-42 5q-58 7 -92 80q-30 65 -30 140q0 1 0.5 9 t1.5 23q12 184 152 384q31 44 65.5 84t71.5 77q85 83 145 120l16 10l4.5 2t10.5 4.5t11 5.5t5 4l37 5l26 10h100q22 0 49.5 11.5t56 26t56 26t49.5 11.5q11 0 33.5 -2.5t33.5 -2.5q59 0 109 -38q41 -31 48 -39q22 -23 22 -55q0 5 -2 -16t-7 -56.5t-13 -78t-19.5 -79.5 t-27.5 -62t-37 -25q-7 0 -14.5 -4.5t-28.5 -10.5q-10 -3 -25 -5t-21 2l-11 5l-5 10q-1 1 -4 1h-3q-13 0 -13 -15q0 -3 2 -9l-19 34q4 7 4 15q0 18 -18.5 30t-37.5 14q-15 1 -27.5 -10t-24.5 -11q-15 0 -15 18q0 16 12.5 29t28.5 14l5 21q0 1 -4.5 1.5l-4.5 0.5q-7 0 -21 -12 q-8 -6 -12.5 -6t-9.5 11l-11 5q0 10 1 31t1 31q0 59 -18 59q-58 -62 -110 -130.5t-99 -142.5zM818 676q7 0 7 -2q0 -6 -8 -6q-3 0 -5 3q0 6 3 9.5t3 -4.5zM896 247q-11 0 -12.5 3t1.5 5.5t7 1.5t4 -10zM587 236q-11 -1 -13 -9q-3 -18 5 -16.5t16 11t10.5 20.5t-9.5 11 q-5 -2 -9 -17zM634 121q3 -6 8 -6q4 0 11 6t15 15t15 18t11 15q0 7 -10 7q-20 0 -36 -17.5t-14 -37.5zM744 178q-15 -4 -15 -14q0 -15 24 -15q11 0 14.5 5t3.5 11q0 8 -5 15.5t-10 7.5q-6 0 -12 -10zM551 163q5 -4 11 -4q11 0 11 15q0 12 -9 12q-13 0 -13 -23zM451 105 q5 0 5 2q-2 2 -5 6.5t-7 4.5q-1 0 -1 -1q0 -6 7 -13q1 -1 1 1zM587 89q-10 -1 -10 -7q0 -16 10 -15.5t18 8.5t9.5 17t-14.5 9q-7 0 -13 -12z" glyph-name="FLW209" horiz-adv-x="1143" unicode="Ñ"/><glyph d="M514 618q-14 -40 -42 -78q-23 -55 -37 -89.5t-19 -48.5q-14 -38 -23.5 -74.5t-14.5 -70.5q-1 -3 -3 -12.5t-4.5 -21t-4.5 -22.5t-2 -17q0 -27 20 -27q15 0 38 14t51 35t60 46.5t65 48.5q20 11 31 11q9 0 10 -7.5t1.5 -15.5t4 -12.5t16.5 1.5l5 10q3 6 8 11t6 21 q2 23 7 23t17.5 -9t24.5 -9l10 -10q13 0 32 -11t19 -23q0 -13 -14 -20t-30 -12t-30 -9.5t-14 -10.5q0 -12 10 -12q3 0 11 3l6 11q1 1 3 -2l2 -3q0 -3 -12 -12l-14 -11q-7 -6 -7 -11q0 -16 8 -16t33 20l33 29q17 14 27 14q6 0 6 -10t-5.5 -32t-5.5 -39q14 -6 20.5 6.5 t11 30.5t10.5 33.5t19 15.5q12 0 11 -7t-7 -16.5t-12.5 -20t-5.5 -16.5q-7 0 -10.5 -7.5t-5 -16t-2.5 -16t-3 -7.5l-5 -11q-34 -12 -44 -12q-21 0 -21 -14q0 -10 7.5 -20t7.5 -8q0 -7 -9 -20.5t-20 -24.5l-5 -11q-4 -9 -25.5 -23.5t-50 -30t-60.5 -30.5t-59 -25l-46 -17 q1 0 9 -4t8 -7t-1 -4l-42 -5q0 13 -7.5 11.5t-17 -8.5t-18 -15t-10.5 -8q-10 0 -14.5 4t-7 9.5t-5.5 9.5t-9 4q-8 0 -20.5 -7.5t-21.5 -7.5q-12 0 -16 13l-10 15q-1 2 -34 35q-14 14 -17.5 35t-9 41.5t-19 36.5t-46.5 20l-42 5q-58 7 -92 80q-30 65 -30 140q0 1 0.5 9 t1.5 23q12 184 152 384q31 44 65.5 84t71.5 77q85 83 145 120l16 10l4.5 2t10.5 4.5t11 5.5t5 4l37 5l26 10h100q22 0 49.5 11.5t56 26t56 26t49.5 11.5q11 0 33.5 -2.5t33.5 -2.5q59 0 109 -38q41 -31 48 -39q22 -23 22 -55q0 5 -2 -16t-7 -56.5t-13 -78t-19.5 -79.5 t-27.5 -62t-37 -25q-7 0 -14.5 -4.5t-28.5 -10.5q-10 -3 -25 -5t-21 2l-11 5l-5 10q-1 1 -4 1h-3q-13 0 -13 -15q0 -3 2 -9l-19 34q4 7 4 15q0 18 -18.5 30t-37.5 14q-15 1 -27.5 -10t-24.5 -11q-15 0 -15 18q0 16 12.5 29t28.5 14l5 21q0 1 -4.5 1.5l-4.5 0.5q-7 0 -21 -12 q-8 -6 -12.5 -6t-9.5 11l-11 5q0 10 1 31t1 31q0 59 -18 59q-58 -62 -110 -130.5t-99 -142.5zM818 676q7 0 7 -2q0 -6 -8 -6q-3 0 -5 3q0 6 3 9.5t3 -4.5zM896 247q-11 0 -12.5 3t1.5 5.5t7 1.5t4 -10zM587 236q-11 -1 -13 -9q-3 -18 5 -16.5t16 11t10.5 20.5t-9.5 11 q-5 -2 -9 -17zM634 121q3 -6 8 -6q4 0 11 6t15 15t15 18t11 15q0 7 -10 7q-20 0 -36 -17.5t-14 -37.5zM744 178q-15 -4 -15 -14q0 -15 24 -15q11 0 14.5 5t3.5 11q0 8 -5 15.5t-10 7.5q-6 0 -12 -10zM551 163q5 -4 11 -4q11 0 11 15q0 12 -9 12q-13 0 -13 -23zM451 105 q5 0 5 2q-2 2 -5 6.5t-7 4.5q-1 0 -1 -1q0 -6 7 -13q1 -1 1 1zM587 89q-10 -1 -10 -7q0 -16 10 -15.5t18 8.5t9.5 17t-14.5 9q-7 0 -13 -12z" glyph-name="FLW209" horiz-adv-x="1143" unicode="С"/><glyph d="M329 1086h272q15 0 45 -1.5t45 -1.5q26 0 41 3q26 -3 59 -3q12 0 31.5 1.5t40.5 3.5t40.5 3.5t31.5 1.5q27 0 38 -14.5t21 -45.5q-5 -5 -7 -17t-5.5 -24t-11 -20.5t-23.5 -6.5q0 -9 -11 -17.5t-11 -26.5q0 -5 0.5 -12.5t0.5 -11.5l-89 -16l-0.5 0.5t-1.5 0.5q-8 0 -25 -5 t-37 -11t-39.5 -11t-32.5 -5q0 -3 -6 -13t-12.5 -23.5t-12.5 -29t-6 -28.5l-19 -61q-5 -14 -12 -32t-16 -38l-21 -47l-11 -37q-10 0 -10 -10l-2 -12q-2 -15 -5.5 -27t-5.5 -20q-3 -9 -3 -4q-7 -4 -12 -22t-9.5 -39t-9 -40t-11.5 -25l-10 -15q-42 -64 -58 -110q-7 -6 -16 -19 t-17 -29.5t-14 -35t-6 -37.5q0 -10 1 -15q-3 2 -6.5 -4t-7.5 -14.5t-8.5 -15.5t-10.5 -7q-5 0 -15 2t-15 2q-3 -4 -5 -14t-2.5 -19.5t1.5 -17t6 -5.5q6 5 12 11t13 11q19 0 19 -15q0 -12 -12 -20t-24 -8q-15 0 -33.5 9.5t-21.5 9.5q-2 -2 -5 -10.5t-7 -8.5q-5 0 -9 4 l-16 -21q-2 -2 -13 -5t-18 -6q-5 5 -5 10q0 1 5 11.5t4 13.5q-11 18 -15.5 12t-7.5 -20.5t-7.5 -29t-15.5 -13.5l-89 11q-24 3 -24 -9q0 -9 4 -17q2 -7 -8 -2t-10 20q0 13 8.5 34t8.5 37q-24 0 -24 62q0 54 14 84l10 21q6 11 2 18.5t-4 17.5q0 -2 7.5 15t19 38t24 39 t21.5 18q10 0 19 -4q0 3 3.5 5t3.5 4t-2 6l11 6q4 1 0 9l-5 6q-18 0 -37 -10q-3 9 -3 21q0 18 10 53t31 84q14 32 33 80t44 113q1 3 8 15t14 27t12 29.5t3 22.5l15 15q3 3 4.5 9.5t6.5 11.5q0 26 -22 26q-12 0 -33.5 -5t-33.5 -5q-25 0 -53 10t-73 27l-26 10q0 11 -5 11 q-5 5 -13 16.5t-15 26t-10.5 28.5t1.5 23l11 21q6 11 8 29.5t5.5 36t11.5 30t25 12.5q12 0 28 -3l89 -16q33 -6 65 -6h12.5t17.5 1h31zM973 1086q-4 0 -4 1l1.5 1.5t2.5 -2.5zM313 594q3 -5 5 -5q5 0 5 5q0 2 -3.5 5.5t-7.5 4.5q-6 -2 -7 -5t8 -5zM235 505q-9 0 -3 -3t3 3z M219 410q-3 -3 -3 -7q0 -12 15 -12q16 0 16 13q0 8 -6 16t-12 8q-9 0 -10 -18zM329 332q-4 0 -4 -1q0 -2 1.5 -1.5t2.5 2.5zM93 212v10q-7 0 -4 -3t4 -7zM219 149q-4 0 -4 -1l1.5 -2t2.5 3zM376 143q-6 2 -7 0t0.5 -4t4 -2t2.5 6zM172 122q20 0 20 8q0 7 -10 8t-10 -16z M366 75q6 3 6 9q0 10 -8 10q-4 0 -9 -3q-1 1 1 -2t4 -7t4 -6.5t2 -0.5zM334 54q6 -2 7 -2q7 0 7 11q0 18 -8 18q-6 0 -6 -27z" glyph-name="FLW210" horiz-adv-x="1012" unicode="Ò"/><glyph d="M329 1086h272q15 0 45 -1.5t45 -1.5q26 0 41 3q26 -3 59 -3q12 0 31.5 1.5t40.5 3.5t40.5 3.5t31.5 1.5q27 0 38 -14.5t21 -45.5q-5 -5 -7 -17t-5.5 -24t-11 -20.5t-23.5 -6.5q0 -9 -11 -17.5t-11 -26.5q0 -5 0.5 -12.5t0.5 -11.5l-89 -16l-0.5 0.5t-1.5 0.5q-8 0 -25 -5 t-37 -11t-39.5 -11t-32.5 -5q0 -3 -6 -13t-12.5 -23.5t-12.5 -29t-6 -28.5l-19 -61q-5 -14 -12 -32t-16 -38l-21 -47l-11 -37q-10 0 -10 -10l-2 -12q-2 -15 -5.5 -27t-5.5 -20q-3 -9 -3 -4q-7 -4 -12 -22t-9.5 -39t-9 -40t-11.5 -25l-10 -15q-42 -64 -58 -110q-7 -6 -16 -19 t-17 -29.5t-14 -35t-6 -37.5q0 -10 1 -15q-3 2 -6.5 -4t-7.5 -14.5t-8.5 -15.5t-10.5 -7q-5 0 -15 2t-15 2q-3 -4 -5 -14t-2.5 -19.5t1.5 -17t6 -5.5q6 5 12 11t13 11q19 0 19 -15q0 -12 -12 -20t-24 -8q-15 0 -33.5 9.5t-21.5 9.5q-2 -2 -5 -10.5t-7 -8.5q-5 0 -9 4 l-16 -21q-2 -2 -13 -5t-18 -6q-5 5 -5 10q0 1 5 11.5t4 13.5q-11 18 -15.5 12t-7.5 -20.5t-7.5 -29t-15.5 -13.5l-89 11q-24 3 -24 -9q0 -9 4 -17q2 -7 -8 -2t-10 20q0 13 8.5 34t8.5 37q-24 0 -24 62q0 54 14 84l10 21q6 11 2 18.5t-4 17.5q0 -2 7.5 15t19 38t24 39 t21.5 18q10 0 19 -4q0 3 3.5 5t3.5 4t-2 6l11 6q4 1 0 9l-5 6q-18 0 -37 -10q-3 9 -3 21q0 18 10 53t31 84q14 32 33 80t44 113q1 3 8 15t14 27t12 29.5t3 22.5l15 15q3 3 4.5 9.5t6.5 11.5q0 26 -22 26q-12 0 -33.5 -5t-33.5 -5q-25 0 -53 10t-73 27l-26 10q0 11 -5 11 q-5 5 -13 16.5t-15 26t-10.5 28.5t1.5 23l11 21q6 11 8 29.5t5.5 36t11.5 30t25 12.5q12 0 28 -3l89 -16q33 -6 65 -6h12.5t17.5 1h31zM973 1086q-4 0 -4 1l1.5 1.5t2.5 -2.5zM313 594q3 -5 5 -5q5 0 5 5q0 2 -3.5 5.5t-7.5 4.5q-6 -2 -7 -5t8 -5zM235 505q-9 0 -3 -3t3 3z M219 410q-3 -3 -3 -7q0 -12 15 -12q16 0 16 13q0 8 -6 16t-12 8q-9 0 -10 -18zM329 332q-4 0 -4 -1q0 -2 1.5 -1.5t2.5 2.5zM93 212v10q-7 0 -4 -3t4 -7zM219 149q-4 0 -4 -1l1.5 -2t2.5 3zM376 143q-6 2 -7 0t0.5 -4t4 -2t2.5 6zM172 122q20 0 20 8q0 7 -10 8t-10 -16z M366 75q6 3 6 9q0 10 -8 10q-4 0 -9 -3q-1 1 1 -2t4 -7t4 -6.5t2 -0.5zM334 54q6 -2 7 -2q7 0 7 11q0 18 -8 18q-6 0 -6 -27z" glyph-name="FLW210" horiz-adv-x="1012" unicode="Т"/><glyph d="M538 862q8 -18 11 -54q1 -13 2.5 -31.5t4.5 -35.5t8.5 -29.5t14.5 -12.5q11 0 16.5 4t8.5 9.5t4 10.5t4 8l10 5q4 2 10.5 13.5t12.5 24t10 21t4 4.5l10 11l11 15l5 11q3 8 17 16t14 26l89 104l6 11q11 19 30.5 34t47.5 34l5 10q2 5 11 9t20 7.5t21 5.5t13 2 q19 0 35.5 -12.5t31.5 -29t28.5 -33.5t28.5 -27q0 -57 -5 -79q14 0 8 -12.5t-19.5 -29t-29.5 -33t-22 -24.5q-39 -53 -65.5 -82.5t-44.5 -38.5l-11 -5l-26 -21q-1 -1 -6 -8t-10.5 -15.5t-11 -15t-8.5 -6.5q-7 0 -7 21q0 18 -8 18q-5 0 -11 -8t-6 -15q0 -23 16 -23 q0 -6 -13 -24t-28.5 -37.5t-28.5 -34.5l-13 -15q-8 0 -10 14q-12 -5 -23.5 -20t-11.5 -27q0 -10 9 -10q10 0 15.5 0.5t7.5 0.5h1q0 4 -15.5 -7.5t-35.5 -30t-39 -40.5t-26 -39q-7 -18 -5 -18t9.5 8.5t17.5 21t18 19.5l10 11q16 0 16 -5q0 -3 -11 -8q-22 -11 -32.5 -32.5 t-13.5 -28.5q-9 0 -23.5 4t-21.5 4q-10 0 -16.5 -10t-6.5 -22q0 -20 15 -20q6 0 14 1t15 -4l-9 -10l-9 2q-6 1 -10 1q-26 0 -48 -22t-30 -49q10 0 12 -3q0 1 -4.5 -9t-11 -23.5t-15 -26.5t-17.5 -17l-19 -10q-1 -1 -1 -4v-4q0 -8 0.5 -15t-8.5 -9l-12 -5l-101 -120l-21 -11 q-8 -4 -14.5 -1t-8.5 3q-3 0 -18 -6.5t-34 -14.5t-39 -14.5t-33 -6.5q-14 0 -21.5 13t-13.5 28t-12.5 28t-18.5 13q-53 0 -53 41q0 19 23 53l127 184l40 56l40 56q23 33 40.5 62.5t30.5 55.5q-17 4 -31 8t-24 8q-35 15 -44 34q-4 10 -5 31t-3 27l-11 5v31q0 6 -2 17t-5 22 t-8 21t-11 14l-11 5l-10 26q-6 17 -13 42t-18 58q0 2 -5 17t-10 33t-9.5 34t-2.5 20q31 108 164 149q39 11 76 11q140 0 186 -127q8 -22 11.5 -48.5t2.5 -57.5zM794 503q-32 0 -38 11q10 6 15.5 5t9 -4t6 -7t7.5 -5zM832 977q9 0 12 7q4 9 6.5 14.5t-7.5 5.5q-12 0 -12 -19 q0 -5 1 -8zM674 417q-5 0 -5 1l2 2q1 2 3 -3z" glyph-name="FLW211" horiz-adv-x="1103" unicode="Ó"/><glyph d="M538 862q8 -18 11 -54q1 -13 2.5 -31.5t4.5 -35.5t8.5 -29.5t14.5 -12.5q11 0 16.5 4t8.5 9.5t4 10.5t4 8l10 5q4 2 10.5 13.5t12.5 24t10 21t4 4.5l10 11l11 15l5 11q3 8 17 16t14 26l89 104l6 11q11 19 30.5 34t47.5 34l5 10q2 5 11 9t20 7.5t21 5.5t13 2 q19 0 35.5 -12.5t31.5 -29t28.5 -33.5t28.5 -27q0 -57 -5 -79q14 0 8 -12.5t-19.5 -29t-29.5 -33t-22 -24.5q-39 -53 -65.5 -82.5t-44.5 -38.5l-11 -5l-26 -21q-1 -1 -6 -8t-10.5 -15.5t-11 -15t-8.5 -6.5q-7 0 -7 21q0 18 -8 18q-5 0 -11 -8t-6 -15q0 -23 16 -23 q0 -6 -13 -24t-28.5 -37.5t-28.5 -34.5l-13 -15q-8 0 -10 14q-12 -5 -23.5 -20t-11.5 -27q0 -10 9 -10q10 0 15.5 0.5t7.5 0.5h1q0 4 -15.5 -7.5t-35.5 -30t-39 -40.5t-26 -39q-7 -18 -5 -18t9.5 8.5t17.5 21t18 19.5l10 11q16 0 16 -5q0 -3 -11 -8q-22 -11 -32.5 -32.5 t-13.5 -28.5q-9 0 -23.5 4t-21.5 4q-10 0 -16.5 -10t-6.5 -22q0 -20 15 -20q6 0 14 1t15 -4l-9 -10l-9 2q-6 1 -10 1q-26 0 -48 -22t-30 -49q10 0 12 -3q0 1 -4.5 -9t-11 -23.5t-15 -26.5t-17.5 -17l-19 -10q-1 -1 -1 -4v-4q0 -8 0.5 -15t-8.5 -9l-12 -5l-101 -120l-21 -11 q-8 -4 -14.5 -1t-8.5 3q-3 0 -18 -6.5t-34 -14.5t-39 -14.5t-33 -6.5q-14 0 -21.5 13t-13.5 28t-12.5 28t-18.5 13q-53 0 -53 41q0 19 23 53l127 184l40 56l40 56q23 33 40.5 62.5t30.5 55.5q-17 4 -31 8t-24 8q-35 15 -44 34q-4 10 -5 31t-3 27l-11 5v31q0 6 -2 17t-5 22 t-8 21t-11 14l-11 5l-10 26q-6 17 -13 42t-18 58q0 2 -5 17t-10 33t-9.5 34t-2.5 20q31 108 164 149q39 11 76 11q140 0 186 -127q8 -22 11.5 -48.5t2.5 -57.5zM794 503q-32 0 -38 11q10 6 15.5 5t9 -4t6 -7t7.5 -5zM832 977q9 0 12 7q4 9 6.5 14.5t-7.5 5.5q-12 0 -12 -19 q0 -5 1 -8zM674 417q-5 0 -5 1l2 2q1 2 3 -3z" glyph-name="FLW211" horiz-adv-x="1103" unicode="У"/><glyph d="M1407 766q-9 2 -8 -2.5t6 -4.5q2 0 2 7zM68 550q-8 6 -8.5 10.5t2.5 9.5t6.5 11t3.5 14q0 9 -4 18l11 -6q9 -20 16 -20q9 0 16 10.5t7 23.5q0 11 -3.5 21.5t-12.5 10.5q-1 0 -1 4t2 4l15.5 17.5t37 41t44 48t36.5 38.5l15 16l32 21l-1 3.5t-1 2.5q0 3 3.5 5t3.5 5l11 5 l3 29q-23 17 -23 41q0 19 22.5 41t52.5 40.5t60 30.5t47 12l253 -43l29 -8q23 33 29 39q15 15 44 15q90 0 127 -66q5 -11 12.5 -24.5t17.5 -18.5q8 -5 28.5 11.5t47.5 39.5t57 46t55 31q10 0 31 -1t31 -1q9 0 22.5 3t28.5 6.5t28.5 6.5t22.5 3q56 0 92.5 -34t36.5 -90 q0 -21 -5 -39q6 -21 6 -33q0 -45 -33 -41q-1 -9 -6.5 -18.5t-11.5 -19.5t-10.5 -18.5t-4.5 -14.5q0 -12 18 -23q8 -6 8.5 -11t-2.5 -10t-6.5 -11t-3.5 -13q0 -9 4 -18l-11 6q-10 22 -20 22q-19 0 -19 -36q0 -11 3.5 -21.5t12.5 -10.5q1 0 1 -4t-2 -4l-15.5 -17.5t-37 -41 t-44 -48t-36.5 -38.5l-15 -16l-32 -21l1 -3.5t1 -2.5q0 -3 -3.5 -5t-3.5 -5l1 -8l-15 -26q23 -20 23 -41q0 -20 -22 -41.5t-52 -40t-61 -30.5t-47 -12l-246 42q-23 -120 -106 -217q-25 -28 -46 -45q-5 0 -5 -10l-16 -10l-36 -16q-10 -24 -42.5 -33.5t-60.5 -9.5 q-60 0 -94.5 33.5t-28.5 93.5q17 20 17 51q0 10 5 18t5 20l10 10q0 22 9 42t17 42l7 20q-46 -38 -89 -53q-10 0 -31 1t-31 1q-9 0 -22.5 -3t-28.5 -6.5t-28.5 -6.5t-22.5 -3q-56 0 -92.5 34t-36.5 90q0 21 5 39q-6 21 -6 33q0 45 33 41q1 9 6.5 18.5t11.5 19.5t10.5 18.5 t4.5 14.5q0 12 -18 23zM502 550l65 168q11 14 15.5 28t7.5 31l7 39q-17 18 -30 26t-29 8q-13 0 -31 -4.5t-46 -12.5q-18 0 -27.5 -10.5t-14 -24.5t-6.5 -27t-4 -17l-11 -21q-2 -5 -12 -11t-12 -13q-7 -17 -28 -52t-43 -72.5t-39 -69.5t-17 -44q0 -6 18.5 -13.5t40.5 -14 t42 -11.5t23 -5q6 0 23 2t37.5 13.5t40.5 36.5t30 71zM131 679q6 -7 3 -1t-3 1zM73 549q2 0 3 1q-2 0 -6 -0.5t3 -0.5zM1093 886q-23 -22 -71 -40.5t-97 -36.5q1 -7 1.5 -14t0.5 -14q0 -39 -13.5 -92.5t-46.5 -121.5q-5 -10 -8 -23.5t-3 -27.5q0 -20 8.5 -35t29.5 -15 q31 0 44.5 -4.5t25.5 -4.5q5 0 14 3t19 6.5t19 6.5t15 3q3 0 9 2l3 11q1 3 3 12.5t5.5 21t7 22.5t7.5 17l11 21q6 11 9.5 29t6 38t3 40t0.5 35q0 5 2 15l3 13q15 65 15 113q0 23 -12 23q-5 0 -11 -3z" glyph-name="FLW212" horiz-adv-x="1475" unicode="Ô"/><glyph d="M1407 766q-9 2 -8 -2.5t6 -4.5q2 0 2 7zM68 550q-8 6 -8.5 10.5t2.5 9.5t6.5 11t3.5 14q0 9 -4 18l11 -6q9 -20 16 -20q9 0 16 10.5t7 23.5q0 11 -3.5 21.5t-12.5 10.5q-1 0 -1 4t2 4l15.5 17.5t37 41t44 48t36.5 38.5l15 16l32 21l-1 3.5t-1 2.5q0 3 3.5 5t3.5 5l11 5 l3 29q-23 17 -23 41q0 19 22.5 41t52.5 40.5t60 30.5t47 12l253 -43l29 -8q23 33 29 39q15 15 44 15q90 0 127 -66q5 -11 12.5 -24.5t17.5 -18.5q8 -5 28.5 11.5t47.5 39.5t57 46t55 31q10 0 31 -1t31 -1q9 0 22.5 3t28.5 6.5t28.5 6.5t22.5 3q56 0 92.5 -34t36.5 -90 q0 -21 -5 -39q6 -21 6 -33q0 -45 -33 -41q-1 -9 -6.5 -18.5t-11.5 -19.5t-10.5 -18.5t-4.5 -14.5q0 -12 18 -23q8 -6 8.5 -11t-2.5 -10t-6.5 -11t-3.5 -13q0 -9 4 -18l-11 6q-10 22 -20 22q-19 0 -19 -36q0 -11 3.5 -21.5t12.5 -10.5q1 0 1 -4t-2 -4l-15.5 -17.5t-37 -41 t-44 -48t-36.5 -38.5l-15 -16l-32 -21l1 -3.5t1 -2.5q0 -3 -3.5 -5t-3.5 -5l1 -8l-15 -26q23 -20 23 -41q0 -20 -22 -41.5t-52 -40t-61 -30.5t-47 -12l-246 42q-23 -120 -106 -217q-25 -28 -46 -45q-5 0 -5 -10l-16 -10l-36 -16q-10 -24 -42.5 -33.5t-60.5 -9.5 q-60 0 -94.5 33.5t-28.5 93.5q17 20 17 51q0 10 5 18t5 20l10 10q0 22 9 42t17 42l7 20q-46 -38 -89 -53q-10 0 -31 1t-31 1q-9 0 -22.5 -3t-28.5 -6.5t-28.5 -6.5t-22.5 -3q-56 0 -92.5 34t-36.5 90q0 21 5 39q-6 21 -6 33q0 45 33 41q1 9 6.5 18.5t11.5 19.5t10.5 18.5 t4.5 14.5q0 12 -18 23zM502 550l65 168q11 14 15.5 28t7.5 31l7 39q-17 18 -30 26t-29 8q-13 0 -31 -4.5t-46 -12.5q-18 0 -27.5 -10.5t-14 -24.5t-6.5 -27t-4 -17l-11 -21q-2 -5 -12 -11t-12 -13q-7 -17 -28 -52t-43 -72.5t-39 -69.5t-17 -44q0 -6 18.5 -13.5t40.5 -14 t42 -11.5t23 -5q6 0 23 2t37.5 13.5t40.5 36.5t30 71zM131 679q6 -7 3 -1t-3 1zM73 549q2 0 3 1q-2 0 -6 -0.5t3 -0.5zM1093 886q-23 -22 -71 -40.5t-97 -36.5q1 -7 1.5 -14t0.5 -14q0 -39 -13.5 -92.5t-46.5 -121.5q-5 -10 -8 -23.5t-3 -27.5q0 -20 8.5 -35t29.5 -15 q31 0 44.5 -4.5t25.5 -4.5q5 0 14 3t19 6.5t19 6.5t15 3q3 0 9 2l3 11q1 3 3 12.5t5.5 21t7 22.5t7.5 17l11 21q6 11 9.5 29t6 38t3 40t0.5 35q0 5 2 15l3 13q15 65 15 113q0 23 -12 23q-5 0 -11 -3z" glyph-name="FLW212" horiz-adv-x="1475" unicode="Ф"/><glyph d="M1131 282l209 162q25 -16 25 -34q0 -11 -9.5 -29.5t-15.5 -30.5l-31 -5l-5 -11q-2 -4 -6 -5t-5 -4q0 -4 4.5 -8.5t11.5 -8.5t14 -7t12 -3q0 -10 -8.5 -29.5t-18.5 -40.5t-18 -41t-7 -31q-6 -19 -14.5 -24.5t-15.5 -9t-12 -12t-5 -32.5q-16 0 -32 -16l-26 -16 q-2 -1 -2.5 -6t-1.5 -10.5t-3.5 -10t-8.5 -4.5l-5 -10q-2 -5 -9 -8l-12 -6q-16 -7 -16 -18q-13 -7 -38.5 -15.5t-34.5 -8.5q-6 0 -26.5 10t-42 22t-38 22t-15.5 10q-14 0 -30 -8l-21 -11l-2.5 0.5t-3.5 0.5q-7 0 -19 -14t-20 -14q-4 0 -7 1l-16 -11l-6.5 0.5t-12.5 -0.5 q-15 0 -56 -3q-17 -1 -31 -1.5t-25 -0.5q-32 26 -50 82q-1 2 -6.5 26t-16.5 70q2 5 -9 38t-24.5 70.5t-26 67.5t-14.5 30q-21 0 -15 -26q2 -9 5 -12q-5 -5 -9 -5q-24 0 -51 -11.5t-27 -43.5q0 -20 -3.5 -26t-7.5 -6q-2 0 -4.5 1t-4.5 1q-4 0 -7 -5t-3 -23v-30 q0 -14 -7 -33.5t-7 -33.5q-10 16 -34 16q-39 0 -34 -53l-10 -5l-6 -10l-47 -11q0 -14 -9 -24t-12 -18l-10 -31q-3 -10 -6 -8t-4 8l-4 12q-1 6 -4 6q-4 0 -9.5 -8t-14 -17t-20 -17t-28.5 -8q-32 0 -67 32l-16 10q0 3 -5 9.5t-11 15.5t-11 18.5t-5 18.5q0 18 22 37l18 16 q4 4 7.5 8t5.5 8l26 16q23 14 47 43t47 51l194 194q17 16 28 28t18 20q19 22 33 46t14 50q0 35 -20 86q-14 34 -21.5 55t-9.5 29q-3 0 -9.5 18t-6.5 24l-10 10q-8 8 -11.5 14t-5.5 15t-4 23t-7 36q-11 41 -40 54l-11 5q-1 6 -1.5 11.5t-0.5 9.5q0 18 10.5 38t28.5 37 t42.5 28.5t52.5 11.5q5 0 10 -5l42 5h63l41 -32l16 -26q2 -3 6.5 -1t4.5 -4l21 16q17 13 33.5 -8t31.5 -54.5t29.5 -70t26.5 -55.5q9 0 19.5 6.5t22 16t22 20.5t18.5 19l58 56q17 16 43.5 38.5t61.5 52.5q18 16 33 18t30 3t32.5 7t40.5 29l11 11q29 29 80 29q24 0 48 -13.5 t42.5 -35.5t29.5 -50t9 -56q3 -6 3 -15t-1 -17.5t-2.5 -13.5t-1.5 -3q0 -8 2 -24t2 -36q0 -1 -3.5 -4.5t-3.5 -6.5l-10 -21q-1 -2 0.5 -5.5t1.5 -4.5q0 -6 -6.5 -12t-6.5 -15l-21 -5l-16 -26q-1 -3 -12 -11.5t-24 -18t-25 -18t-17 -10.5l-11 -5q0 10 -5.5 24.5t-14.5 14.5 q-6 0 -9 -17.5t-7 -21.5l-11 -16q-5 -8 -10 -8q-8 0 -16 14l-5 10q9 11 7 21t-9 20t-14 20.5t-7 23.5q0 3 2 9q0 49 -15 49q-12 0 -47 -48l-24 -34q-9 -13 -19 -19l-10 -5q-18 -9 -41 -34.5t-43.5 -56.5t-35 -61.5t-14.5 -49.5q0 -16 8 -29l10 -15q11 0 20 -28.5t16 -60.5 t10.5 -54.5t3.5 -10.5q0 -9 -8 -14q3 -12 7 -31t10 -37t13.5 -31t16.5 -13q31 0 65.5 27t76.5 59zM660 999q-5 0 -5 1q0 2 1.5 2t3.5 -3zM859 486q3 -1 9 -1q3 0 4 1t-3.5 11t-13.5 10q-3 0 -3 -3q0 -5 7 -18zM880 413q5 -5 8 -5q9 0 9 23q0 1 -3 7.5t-6.5 13t-6.5 12 l-3 5.5q-2 -4 -1 -13t3 -22.5t0 -20.5zM874 387q0 -30 17 -30q5 0 12.5 10.5t7.5 26.5q0 9 -19 9q-22 0 -18 -16zM476 256q-5 0 -5 1l2 2q1 1 3 -3zM1251 177q8 -5 13 -2.5t6.5 6.5t-0.5 8.5t-7 4.5q-13 0 -13 -11q0 -4 1 -6zM335 130q-5 -4 -4 -10q1 -12 6 -13.5t10 2.5 t9 12.5t4 15.5q0 14 -15 14q-10 0 -10 -21zM1157 109q-19 -3 -19 -17q0 -21 21 -21q8 0 22 10.5t14 18.5q0 21 -19 21q-12 0 -19 -12z" glyph-name="FLW213" horiz-adv-x="1408" unicode="Õ"/><glyph d="M1131 282l209 162q25 -16 25 -34q0 -11 -9.5 -29.5t-15.5 -30.5l-31 -5l-5 -11q-2 -4 -6 -5t-5 -4q0 -4 4.5 -8.5t11.5 -8.5t14 -7t12 -3q0 -10 -8.5 -29.5t-18.5 -40.5t-18 -41t-7 -31q-6 -19 -14.5 -24.5t-15.5 -9t-12 -12t-5 -32.5q-16 0 -32 -16l-26 -16 q-2 -1 -2.5 -6t-1.5 -10.5t-3.5 -10t-8.5 -4.5l-5 -10q-2 -5 -9 -8l-12 -6q-16 -7 -16 -18q-13 -7 -38.5 -15.5t-34.5 -8.5q-6 0 -26.5 10t-42 22t-38 22t-15.5 10q-14 0 -30 -8l-21 -11l-2.5 0.5t-3.5 0.5q-7 0 -19 -14t-20 -14q-4 0 -7 1l-16 -11l-6.5 0.5t-12.5 -0.5 q-15 0 -56 -3q-17 -1 -31 -1.5t-25 -0.5q-32 26 -50 82q-1 2 -6.5 26t-16.5 70q2 5 -9 38t-24.5 70.5t-26 67.5t-14.5 30q-21 0 -15 -26q2 -9 5 -12q-5 -5 -9 -5q-24 0 -51 -11.5t-27 -43.5q0 -20 -3.5 -26t-7.5 -6q-2 0 -4.5 1t-4.5 1q-4 0 -7 -5t-3 -23v-30 q0 -14 -7 -33.5t-7 -33.5q-10 16 -34 16q-39 0 -34 -53l-10 -5l-6 -10l-47 -11q0 -14 -9 -24t-12 -18l-10 -31q-3 -10 -6 -8t-4 8l-4 12q-1 6 -4 6q-4 0 -9.5 -8t-14 -17t-20 -17t-28.5 -8q-32 0 -67 32l-16 10q0 3 -5 9.5t-11 15.5t-11 18.5t-5 18.5q0 18 22 37l18 16 q4 4 7.5 8t5.5 8l26 16q23 14 47 43t47 51l194 194q17 16 28 28t18 20q19 22 33 46t14 50q0 35 -20 86q-14 34 -21.5 55t-9.5 29q-3 0 -9.5 18t-6.5 24l-10 10q-8 8 -11.5 14t-5.5 15t-4 23t-7 36q-11 41 -40 54l-11 5q-1 6 -1.5 11.5t-0.5 9.5q0 18 10.5 38t28.5 37 t42.5 28.5t52.5 11.5q5 0 10 -5l42 5h63l41 -32l16 -26q2 -3 6.5 -1t4.5 -4l21 16q17 13 33.5 -8t31.5 -54.5t29.5 -70t26.5 -55.5q9 0 19.5 6.5t22 16t22 20.5t18.5 19l58 56q17 16 43.5 38.5t61.5 52.5q18 16 33 18t30 3t32.5 7t40.5 29l11 11q29 29 80 29q24 0 48 -13.5 t42.5 -35.5t29.5 -50t9 -56q3 -6 3 -15t-1 -17.5t-2.5 -13.5t-1.5 -3q0 -8 2 -24t2 -36q0 -1 -3.5 -4.5t-3.5 -6.5l-10 -21q-1 -2 0.5 -5.5t1.5 -4.5q0 -6 -6.5 -12t-6.5 -15l-21 -5l-16 -26q-1 -3 -12 -11.5t-24 -18t-25 -18t-17 -10.5l-11 -5q0 10 -5.5 24.5t-14.5 14.5 q-6 0 -9 -17.5t-7 -21.5l-11 -16q-5 -8 -10 -8q-8 0 -16 14l-5 10q9 11 7 21t-9 20t-14 20.5t-7 23.5q0 3 2 9q0 49 -15 49q-12 0 -47 -48l-24 -34q-9 -13 -19 -19l-10 -5q-18 -9 -41 -34.5t-43.5 -56.5t-35 -61.5t-14.5 -49.5q0 -16 8 -29l10 -15q11 0 20 -28.5t16 -60.5 t10.5 -54.5t3.5 -10.5q0 -9 -8 -14q3 -12 7 -31t10 -37t13.5 -31t16.5 -13q31 0 65.5 27t76.5 59zM660 999q-5 0 -5 1q0 2 1.5 2t3.5 -3zM859 486q3 -1 9 -1q3 0 4 1t-3.5 11t-13.5 10q-3 0 -3 -3q0 -5 7 -18zM880 413q5 -5 8 -5q9 0 9 23q0 1 -3 7.5t-6.5 13t-6.5 12 l-3 5.5q-2 -4 -1 -13t3 -22.5t0 -20.5zM874 387q0 -30 17 -30q5 0 12.5 10.5t7.5 26.5q0 9 -19 9q-22 0 -18 -16zM476 256q-5 0 -5 1l2 2q1 1 3 -3zM1251 177q8 -5 13 -2.5t6.5 6.5t-0.5 8.5t-7 4.5q-13 0 -13 -11q0 -4 1 -6zM335 130q-5 -4 -4 -10q1 -12 6 -13.5t10 2.5 t9 12.5t4 15.5q0 14 -15 14q-10 0 -10 -21zM1157 109q-19 -3 -19 -17q0 -21 21 -21q8 0 22 10.5t14 18.5q0 21 -19 21q-12 0 -19 -12z" glyph-name="FLW213" horiz-adv-x="1408" unicode="Х"/><glyph d="M79 181q-3 84 30 190q15 46 31.5 91t32.5 91q30 171 141 372q9 3 16.5 11t15.5 16.5t17.5 15.5t23.5 7q0 17 17 36t35 19q10 0 22.5 -14t23.5 -14q10 0 18 11t16 11l36 -31q7 -5 -1 -32q14 0 26 -8t21 -20t14 -26.5t3 -28.5q-5 -5 -5 -21q0 -11 -14.5 -23t-17.5 -12 q3 -11 7 -27.5t9 -38.5q3 -17 -7.5 -42t-10.5 -39q0 -4 2 -12l-34 -35q-13 -13 -13 -35q0 -7 2 -22t2 -22q0 -28 -30 -59l-15 -17q-9 -11 -10 -15q-5 -59 -25 -125.5t-54 -140.5q49 5 87 11t66 11q81 16 81 36l20 61q4 14 11 32t16 38l21 47l11 37q10 0 10 10l3 12 q3 15 6 27l5 20q1 4 1.5 5t0.5 -1q7 4 12 22t9.5 39t9 40t11.5 25l10 15q42 64 58 110q7 6 16 19t17 29.5t14 35t6 37.5q0 4 -1 9t4 5q3 0 5.5 6.5t5.5 14.5t7.5 14.5t10.5 6.5q5 0 15 -2t15 -2q2 3 3.5 10.5t2.5 16t1 16t-2 9.5q0 4 -4 2.5t-9 -5.5t-10 -8.5t-7 -6.5 q-19 0 -19 15q0 12 12 20t24 8q15 0 33.5 -9.5t21.5 -9.5q1 1 4.5 10t7.5 9q5 0 9 -4l16 21q2 2 13 5t18 6q5 -5 5 -10q0 -1 -2.5 -6t-2.5 -10q-6 -5 -3 -9q7 -14 18.5 -7t11.5 38q0 21 15 20l89 -11q24 -3 24 9q0 21 7 21t7 -22q0 -13 -8.5 -34t-8.5 -37q24 0 24 -62 q0 -54 -14 -84l-10 -21q-6 -11 -2 -18.5t4 -17.5q0 2 -7.5 -15t-19 -38t-24 -39t-21.5 -18q-10 0 -19 4q0 -3 -4 -5t-4 -4q0 -3 3 -6l-11 -6q-4 -1 1 -8l4 -7q18 0 37 10q3 -9 3 -21q0 -18 -9.5 -53t-30.5 -84q-13 -32 -33 -80t-45 -113l-3 -3t-4.5 -7.5t-0.5 -8t10 -3.5 q65 0 189 -59q30 -14 57 -20q0 -31 10 -52q-45 0 -45 -26q0 -7 2 -20t2 -20q0 -15 -6 -23l-115 -183q-5 -8 -17 -20l-21 -22q-27 -28 -26 -31l3 -13q1 -2 -4 -3.5l-5 -1.5q-4 0 -10.5 4.5t-11.5 4.5q-9 0 -17.5 -6.5t-8.5 -15.5t-16.5 -16.5t-39.5 -13.5t-47.5 -11.5 t-40.5 -11.5l-31 -11l-42 -5l-6 11l-4 -0.5t-3 -0.5q-6 0 -14 7t-10 9l-21 16l1 3t1 2q0 3 -3.5 5t-3.5 6l-11 5q-9 58 -9 55q0 5 0.5 13.5t5.5 8.5q2 0 2 4t-2 4q-1 0 -2 -1q0 15 16 54l-54 -6q-7 -2 -33 0l-237 13q-45 2 -72 4t-36 2q-26 0 -41 -3q-26 3 -59 3 q-12 0 -31.5 -1.5t-40.5 -3.5t-40.5 -3.5t-31.5 -1.5q-25 0 -40 16t-15 45q0 16 4 32q4 17 14 23.5t20.5 12t18.5 14t8 29.5q0 4 -0.5 12t-0.5 12h2q-2 0 -5.5 21t-5.5 35zM329 -80q4 0 4 -1t-1 -2q-2 -1 -3 3zM989 412q-3 5 -5 5q-5 0 -5 -5q0 -2 4.5 -5.5t6.5 -3.5 q5 0 8 5q-3 3 -9 4zM1067 501q5 0 5 1q0 3 -2 2.5t-3 -3.5zM1083 596q3 3 3 7q0 12 -15 12q-11 0 -13.5 -5.5t-1 -12.5t6.5 -12.5t10 -5.5q7 0 10 17zM973 674q4 0 4 1t-1 2q-2 1 -3 -3zM1209 793v-9q5 0 4 3q-2 2 -4 6zM1083 857q4 0 4 1q0 9 -4 -1zM926 863q7 -3 7.5 -0.5 t-1 5t-4 2.5t-2.5 -7zM1130 884q-20 0 -20 -8q0 -7 10 -8t10 16zM936 931q-6 -3 -6 -9q0 -10 8 -10q4 0 9 3q1 -1 -1 2t-4 7t-4 6.5t-2 0.5zM968 952q-6 2 -7 2q-7 0 -7 -11q0 -18 8 -18q6 0 6 27z" glyph-name="FLW214" horiz-adv-x="1335" unicode="Ö"/><glyph d="M79 181q-3 84 30 190q15 46 31.5 91t32.5 91q30 171 141 372q9 3 16.5 11t15.5 16.5t17.5 15.5t23.5 7q0 17 17 36t35 19q10 0 22.5 -14t23.5 -14q10 0 18 11t16 11l36 -31q7 -5 -1 -32q14 0 26 -8t21 -20t14 -26.5t3 -28.5q-5 -5 -5 -21q0 -11 -14.5 -23t-17.5 -12 q3 -11 7 -27.5t9 -38.5q3 -17 -7.5 -42t-10.5 -39q0 -4 2 -12l-34 -35q-13 -13 -13 -35q0 -7 2 -22t2 -22q0 -28 -30 -59l-15 -17q-9 -11 -10 -15q-5 -59 -25 -125.5t-54 -140.5q49 5 87 11t66 11q81 16 81 36l20 61q4 14 11 32t16 38l21 47l11 37q10 0 10 10l3 12 q3 15 6 27l5 20q1 4 1.5 5t0.5 -1q7 4 12 22t9.5 39t9 40t11.5 25l10 15q42 64 58 110q7 6 16 19t17 29.5t14 35t6 37.5q0 4 -1 9t4 5q3 0 5.5 6.5t5.5 14.5t7.5 14.5t10.5 6.5q5 0 15 -2t15 -2q2 3 3.5 10.5t2.5 16t1 16t-2 9.5q0 4 -4 2.5t-9 -5.5t-10 -8.5t-7 -6.5 q-19 0 -19 15q0 12 12 20t24 8q15 0 33.5 -9.5t21.5 -9.5q1 1 4.5 10t7.5 9q5 0 9 -4l16 21q2 2 13 5t18 6q5 -5 5 -10q0 -1 -2.5 -6t-2.5 -10q-6 -5 -3 -9q7 -14 18.5 -7t11.5 38q0 21 15 20l89 -11q24 -3 24 9q0 21 7 21t7 -22q0 -13 -8.5 -34t-8.5 -37q24 0 24 -62 q0 -54 -14 -84l-10 -21q-6 -11 -2 -18.5t4 -17.5q0 2 -7.5 -15t-19 -38t-24 -39t-21.5 -18q-10 0 -19 4q0 -3 -4 -5t-4 -4q0 -3 3 -6l-11 -6q-4 -1 1 -8l4 -7q18 0 37 10q3 -9 3 -21q0 -18 -9.5 -53t-30.5 -84q-13 -32 -33 -80t-45 -113l-3 -3t-4.5 -7.5t-0.5 -8t10 -3.5 q65 0 189 -59q30 -14 57 -20q0 -31 10 -52q-45 0 -45 -26q0 -7 2 -20t2 -20q0 -15 -6 -23l-115 -183q-5 -8 -17 -20l-21 -22q-27 -28 -26 -31l3 -13q1 -2 -4 -3.5l-5 -1.5q-4 0 -10.5 4.5t-11.5 4.5q-9 0 -17.5 -6.5t-8.5 -15.5t-16.5 -16.5t-39.5 -13.5t-47.5 -11.5 t-40.5 -11.5l-31 -11l-42 -5l-6 11l-4 -0.5t-3 -0.5q-6 0 -14 7t-10 9l-21 16l1 3t1 2q0 3 -3.5 5t-3.5 6l-11 5q-9 58 -9 55q0 5 0.5 13.5t5.5 8.5q2 0 2 4t-2 4q-1 0 -2 -1q0 15 16 54l-54 -6q-7 -2 -33 0l-237 13q-45 2 -72 4t-36 2q-26 0 -41 -3q-26 3 -59 3 q-12 0 -31.5 -1.5t-40.5 -3.5t-40.5 -3.5t-31.5 -1.5q-25 0 -40 16t-15 45q0 16 4 32q4 17 14 23.5t20.5 12t18.5 14t8 29.5q0 4 -0.5 12t-0.5 12h2q-2 0 -5.5 21t-5.5 35zM329 -80q4 0 4 -1t-1 -2q-2 -1 -3 3zM989 412q-3 5 -5 5q-5 0 -5 -5q0 -2 4.5 -5.5t6.5 -3.5 q5 0 8 5q-3 3 -9 4zM1067 501q5 0 5 1q0 3 -2 2.5t-3 -3.5zM1083 596q3 3 3 7q0 12 -15 12q-11 0 -13.5 -5.5t-1 -12.5t6.5 -12.5t10 -5.5q7 0 10 17zM973 674q4 0 4 1t-1 2q-2 1 -3 -3zM1209 793v-9q5 0 4 3q-2 2 -4 6zM1083 857q4 0 4 1q0 9 -4 -1zM926 863q7 -3 7.5 -0.5 t-1 5t-4 2.5t-2.5 -7zM1130 884q-20 0 -20 -8q0 -7 10 -8t10 16zM936 931q-6 -3 -6 -9q0 -10 8 -10q4 0 9 3q1 -1 -1 2t-4 7t-4 6.5t-2 0.5zM968 952q-6 2 -7 2q-7 0 -7 -11q0 -18 8 -18q6 0 6 27z" glyph-name="FLW214" horiz-adv-x="1335" unicode="Ц"/><glyph d="M565 574q40 128 75 188q58 97 134 90q0 4 5.5 6.5t12.5 3.5t11.5 1t3.5 0l5 2q2 1 1 2l19 -5q6 6 12 5t12 -4.5t11.5 -7.5t10.5 -4q3 0 13 7.5t18 7.5q15 0 28.5 -12.5t24.5 -29t17.5 -34t6.5 -27.5q0 -7 -2.5 -25.5t-7 -38.5t-9.5 -38t-10 -24q0 -36 -13.5 -83.5 t-23.5 -87.5q-2 -7 4 -15t16 -17t22 -18.5t22 -19.5q6 -31 -41 -57l-37 -20q-16 -8 -30 -29t-26 -46t-21.5 -49.5t-17.5 -39.5l-136 -262q-9 -16 -28 -32t-42 -28.5t-47 -20.5t-42 -8q-13 0 -31.5 10t-36 25t-29.5 33t-12 35q0 2 1.5 2t1.5 1q0 -3 -20 28q-28 41 -28 88 q0 48 30 108q-3 26 17 64l14 27q7 13 7 24q0 27 -59 27h-73l-184 23q-94 12 -94 127q0 64 30 159q11 35 26 73t34 78l10 6q28 19 46.5 67t42.5 105q4 4 6 16t11 12q6 0 7.5 -5t0.5 -12t-3 -14t-2 -12q0 -23 6 -23q3 0 9.5 11.5t15.5 27t18 32.5t16 29q10 16 17.5 25 t15.5 15.5t17.5 13.5t22.5 18l9 8l6 10q92 -6 92 -119q0 -111 -40 -190q1 -12 -4 -34t-11.5 -46t-12 -45t-5.5 -32q0 -20 20.5 -24.5t45.5 -4.5h32q30 0 66 3z" glyph-name="FLW215" horiz-adv-x="1006" unicode="×"/><glyph d="M565 574q40 128 75 188q58 97 134 90q0 4 5.5 6.5t12.5 3.5t11.5 1t3.5 0l5 2q2 1 1 2l19 -5q6 6 12 5t12 -4.5t11.5 -7.5t10.5 -4q3 0 13 7.5t18 7.5q15 0 28.5 -12.5t24.5 -29t17.5 -34t6.5 -27.5q0 -7 -2.5 -25.5t-7 -38.5t-9.5 -38t-10 -24q0 -36 -13.5 -83.5 t-23.5 -87.5q-2 -7 4 -15t16 -17t22 -18.5t22 -19.5q6 -31 -41 -57l-37 -20q-16 -8 -30 -29t-26 -46t-21.5 -49.5t-17.5 -39.5l-136 -262q-9 -16 -28 -32t-42 -28.5t-47 -20.5t-42 -8q-13 0 -31.5 10t-36 25t-29.5 33t-12 35q0 2 1.5 2t1.5 1q0 -3 -20 28q-28 41 -28 88 q0 48 30 108q-3 26 17 64l14 27q7 13 7 24q0 27 -59 27h-73l-184 23q-94 12 -94 127q0 64 30 159q11 35 26 73t34 78l10 6q28 19 46.5 67t42.5 105q4 4 6 16t11 12q6 0 7.5 -5t0.5 -12t-3 -14t-2 -12q0 -23 6 -23q3 0 9.5 11.5t15.5 27t18 32.5t16 29q10 16 17.5 25 t15.5 15.5t17.5 13.5t22.5 18l9 8l6 10q92 -6 92 -119q0 -111 -40 -190q1 -12 -4 -34t-11.5 -46t-12 -45t-5.5 -32q0 -20 20.5 -24.5t45.5 -4.5h32q30 0 66 3z" glyph-name="FLW215" horiz-adv-x="1006" unicode="Ч"/><glyph d="M1464 667q2 2 2 3q-1 3 -6 13q-4 9 -14 -1q-7 -5 -5 -14q1 -14 10.5 -17t12.5 16zM1375 1025q0 -6 1 -4l3 6t4 8.5t4 4.5q4 0 8 -4l14 20q6 7 19 9t12 -8q0 -2 -2.5 -6t-2.5 -10q-7 -7 -1 -13.5t13 -4.5l5.5 11.5t5.5 27.5q1 21 14 20l75 -13q21 -3 21 8q0 21 4 21 q8 0 8 -22q-1 -13 -8.5 -34t-8.5 -37q22 0 20 -62q-1 -54 -14 -84l-10 -20q-3 -7 -5 -37v-21q-3 -1 -10 -15l-15 -30t-16.5 -29t-15.5 -13q-8 0 -16 4q0 -3 -4 -4.5t-4 -3.5l2 -6l-9 -6q0 -10 4 -13t9.5 -2.5t11.5 3t9 2.5q5 0 4 -25q-2 -83 -51 -251q0 -1 -5 -13.5 t-9 -27.5t-6 -27.5t4 -12.5q42 0 42 -21q0 -4 -2 -11.5t-2 -11.5q0 -18 27 -26q0 -12 2 -25t5 -27q-38 0 -38 -26q-1 -7 0.5 -20t1.5 -20q-2 -18 -6 -22l-69 -73q-3 -4 -6.5 -9t-7.5 -10l-20 -21q-23 -28 -22 -31l2 -14q1 -2 -3.5 -3l-4.5 -1q-3 0 -9 4.5t-10 4.5 q-8 0 -15 -6.5t-7 -14.5v-2h-3q1 0 2 -1h1v-1l-33 -4l-16 2q-7 0 -18 5l-111 3q-17 1 -39.5 2t-50.5 3l-65 -12l-300 3q-1 0 -1.5 2t-4.5 1q-4 -2 -10.5 -3t-15.5 -3l-2 8l-46 -5q-11 -1 -35 0.5t-55.5 5l-67.5 7.5t-71 7q-40 4 -62.5 6t-29.5 1l-35 -2q-9 -1 -26 1.5 t-24 2.5q-64 2 -105 -6q-5 0 -9 -0.5t-8 -0.5q-49 2 -46 68q0 22 9 40q5 11 13.5 15.5t16 9t13.5 13t6 26.5v24h2q-1 0 -2.5 10.5t-3 24.5t-2.5 27.5t-1 20.5q1 37 9.5 78.5t21.5 82.5q14 46 29.5 91t29.5 91q30 174 129 369q7 2 13 10t13.5 16.5t16 15t20.5 6.5 q1 15 15.5 35t30.5 19q8 0 18 -14.5t20 -14.5q9 0 15.5 11t13.5 10l30 -31q5 -5 -1 -32q20 -1 30 -12.5t14 -27.5t3.5 -34t-0.5 -31q0 -11 -4.5 -16.5t-10 -9.5t-9 -10t-0.5 -18l4 -25q2 -11 3 -19t1 -12q-1 -15 -9 -37.5t-8 -34.5q0 -8 1 -12l-29 -34q-13 -16 -13 -35 q0 -7 1.5 -22t1.5 -22q-1 -13 -20.5 -36t-28.5 -54q-15 -127 -74 -264q41 5 74.5 10t57.5 9q68 15 69 34q11 40 22 73t21 57l19 47l10 37q1 6 5 6.5t4 2.5l2 12q3 13 5.5 25t4.5 22q3 9 3 4q6 4 9.5 21t7.5 37.5t9 40t13 26.5l8 15q5 8 12.5 21t16.5 30q28 118 102 263 q-13 1 -13 15q0 7 10.5 16t24.5 16t27.5 12t20.5 5q1 16 16 35t31 19q8 0 18.5 -14.5t19.5 -14.5q8 0 15 11t14 10l30 -31q1 -1 3 -5l17 -4q21 -3 22 9q0 21 4 20q8 0 8 -22q-1 -11 -8 -31t-8 -29q19 -33 18 -73q-2 -58 -14 -83l-9 -21q-2 -6 -4 -14v-4q0 -7 2.5 -10t2.5 -9 q0 -10 -11 -25t-9 -30l-16 -17q-2 -3 -6.5 -10t-9 -15t-7.5 -15.5t-3 -11.5t2.5 -13t2.5 -17q-1 -49 -27.5 -113t-58.5 -147l-1 -37q0 -1 -5 -14.5t-10 -29.5t-7.5 -29t1.5 -13q13 -1 28.5 -3.5t32.5 -8.5q119 16 121 43q4 25 13.5 70t31.5 97l19 47l10 36q0 1 4 3t4 7l3 12 q2 8 4.5 19.5t5.5 27.5q3 9 3 4q8 6 7 9t-5 6t-9 7.5t-5 13.5q2 9 11 18l8 15q11 17 24 44t29 64q8 8 15 15.5t8 21.5q0 3 5 25.5t13 47.5t17.5 45.5t17.5 20.5q8 -1 13 -2t8 -1q7 0 9.5 16t2.5 30q0 10 -2 10q-4 0 -11.5 -12t-14.5 -11q-16 0 -16 15q1 12 10.5 20t21.5 7 q13 0 20.5 -7t11 -15t4.5 -14.5t2 -6.5q4 0 4 5q0 4 -1 11t0 10q0 4 3 1zM1295 -77l18 1q-4 -3 -7.5 -5.5t-8.5 -5.5q-1 0 -2 10zM1295 -75h3q-1 -1 -3 -1v1zM1379 485q-2 5 -3 5q-5 0 -5 -5q0 -2 3 -6t7 -4q7 0 7 5q0 2 -9 5zM1448 572q5 0 5 1q0 3 -2 2.5t-3 -3.5z M1373 747q5 0 2.5 2.5t-2.5 -2.5zM1575 852l2 8l2 -2q0 -6 -4 -6zM1470 928q4 0 4 1q0 9 -4 -1zM1337 937q6 -3 7 -1t-0.5 4.5t-4 3t-2.5 -6.5zM1511 954q-17 0 -17 -8q0 -7 8 -8q9 -2 9 16zM1347 1005q-6 -4 -3 -14q2 -6 5 -6t7 4l-1 3.5t-3 7t-3.5 6t-1.5 -0.5z" glyph-name="FLW216" horiz-adv-x="1592" unicode="Ø"/><glyph d="M1464 667q2 2 2 3q-1 3 -6 13q-4 9 -14 -1q-7 -5 -5 -14q1 -14 10.5 -17t12.5 16zM1375 1025q0 -6 1 -4l3 6t4 8.5t4 4.5q4 0 8 -4l14 20q6 7 19 9t12 -8q0 -2 -2.5 -6t-2.5 -10q-7 -7 -1 -13.5t13 -4.5l5.5 11.5t5.5 27.5q1 21 14 20l75 -13q21 -3 21 8q0 21 4 21 q8 0 8 -22q-1 -13 -8.5 -34t-8.5 -37q22 0 20 -62q-1 -54 -14 -84l-10 -20q-3 -7 -5 -37v-21q-3 -1 -10 -15l-15 -30t-16.5 -29t-15.5 -13q-8 0 -16 4q0 -3 -4 -4.5t-4 -3.5l2 -6l-9 -6q0 -10 4 -13t9.5 -2.5t11.5 3t9 2.5q5 0 4 -25q-2 -83 -51 -251q0 -1 -5 -13.5 t-9 -27.5t-6 -27.5t4 -12.5q42 0 42 -21q0 -4 -2 -11.5t-2 -11.5q0 -18 27 -26q0 -12 2 -25t5 -27q-38 0 -38 -26q-1 -7 0.5 -20t1.5 -20q-2 -18 -6 -22l-69 -73q-3 -4 -6.5 -9t-7.5 -10l-20 -21q-23 -28 -22 -31l2 -14q1 -2 -3.5 -3l-4.5 -1q-3 0 -9 4.5t-10 4.5 q-8 0 -15 -6.5t-7 -14.5v-2h-3q1 0 2 -1h1v-1l-33 -4l-16 2q-7 0 -18 5l-111 3q-17 1 -39.5 2t-50.5 3l-65 -12l-300 3q-1 0 -1.5 2t-4.5 1q-4 -2 -10.5 -3t-15.5 -3l-2 8l-46 -5q-11 -1 -35 0.5t-55.5 5l-67.5 7.5t-71 7q-40 4 -62.5 6t-29.5 1l-35 -2q-9 -1 -26 1.5 t-24 2.5q-64 2 -105 -6q-5 0 -9 -0.5t-8 -0.5q-49 2 -46 68q0 22 9 40q5 11 13.5 15.5t16 9t13.5 13t6 26.5v24h2q-1 0 -2.5 10.5t-3 24.5t-2.5 27.5t-1 20.5q1 37 9.5 78.5t21.5 82.5q14 46 29.5 91t29.5 91q30 174 129 369q7 2 13 10t13.5 16.5t16 15t20.5 6.5 q1 15 15.5 35t30.5 19q8 0 18 -14.5t20 -14.5q9 0 15.5 11t13.5 10l30 -31q5 -5 -1 -32q20 -1 30 -12.5t14 -27.5t3.5 -34t-0.5 -31q0 -11 -4.5 -16.5t-10 -9.5t-9 -10t-0.5 -18l4 -25q2 -11 3 -19t1 -12q-1 -15 -9 -37.5t-8 -34.5q0 -8 1 -12l-29 -34q-13 -16 -13 -35 q0 -7 1.5 -22t1.5 -22q-1 -13 -20.5 -36t-28.5 -54q-15 -127 -74 -264q41 5 74.5 10t57.5 9q68 15 69 34q11 40 22 73t21 57l19 47l10 37q1 6 5 6.5t4 2.5l2 12q3 13 5.5 25t4.5 22q3 9 3 4q6 4 9.5 21t7.5 37.5t9 40t13 26.5l8 15q5 8 12.5 21t16.5 30q28 118 102 263 q-13 1 -13 15q0 7 10.5 16t24.5 16t27.5 12t20.5 5q1 16 16 35t31 19q8 0 18.5 -14.5t19.5 -14.5q8 0 15 11t14 10l30 -31q1 -1 3 -5l17 -4q21 -3 22 9q0 21 4 20q8 0 8 -22q-1 -11 -8 -31t-8 -29q19 -33 18 -73q-2 -58 -14 -83l-9 -21q-2 -6 -4 -14v-4q0 -7 2.5 -10t2.5 -9 q0 -10 -11 -25t-9 -30l-16 -17q-2 -3 -6.5 -10t-9 -15t-7.5 -15.5t-3 -11.5t2.5 -13t2.5 -17q-1 -49 -27.5 -113t-58.5 -147l-1 -37q0 -1 -5 -14.5t-10 -29.5t-7.5 -29t1.5 -13q13 -1 28.5 -3.5t32.5 -8.5q119 16 121 43q4 25 13.5 70t31.5 97l19 47l10 36q0 1 4 3t4 7l3 12 q2 8 4.5 19.5t5.5 27.5q3 9 3 4q8 6 7 9t-5 6t-9 7.5t-5 13.5q2 9 11 18l8 15q11 17 24 44t29 64q8 8 15 15.5t8 21.5q0 3 5 25.5t13 47.5t17.5 45.5t17.5 20.5q8 -1 13 -2t8 -1q7 0 9.5 16t2.5 30q0 10 -2 10q-4 0 -11.5 -12t-14.5 -11q-16 0 -16 15q1 12 10.5 20t21.5 7 q13 0 20.5 -7t11 -15t4.5 -14.5t2 -6.5q4 0 4 5q0 4 -1 11t0 10q0 4 3 1zM1295 -77l18 1q-4 -3 -7.5 -5.5t-8.5 -5.5q-1 0 -2 10zM1295 -75h3q-1 -1 -3 -1v1zM1379 485q-2 5 -3 5q-5 0 -5 -5q0 -2 3 -6t7 -4q7 0 7 5q0 2 -9 5zM1448 572q5 0 5 1q0 3 -2 2.5t-3 -3.5z M1373 747q5 0 2.5 2.5t-2.5 -2.5zM1575 852l2 8l2 -2q0 -6 -4 -6zM1470 928q4 0 4 1q0 9 -4 -1zM1337 937q6 -3 7 -1t-0.5 4.5t-4 3t-2.5 -6.5zM1511 954q-17 0 -17 -8q0 -7 8 -8q9 -2 9 16zM1347 1005q-6 -4 -3 -14q2 -6 5 -6t7 4l-1 3.5t-3 7t-3.5 6t-1.5 -0.5z" glyph-name="FLW216" horiz-adv-x="1592" unicode="Ш"/><glyph d="M1460 683q2 2 2 3q-1 3 -6 13q-4 9 -14 -1q-7 -5 -5 -14q2 -14 11.5 -17t11.5 16zM1362 1039q0 -6 1 -4l3 6t4 8.5t4 4.5q4 0 8 -4l14 21q5 7 18 9.5t13 -7.5q0 -2 -2.5 -6.5t-2.5 -10.5q-7 -7 -1 -13.5t13 -3.5l5.5 11.5t5.5 27.5q0 21 13 20l75 -11q21 -3 21 9 q0 21 4 21q8 0 8 -22q0 -13 -7.5 -34t-7.5 -37q21 0 21 -62q0 -56 -12 -84l-9 -21q-4 -8 -4 -37v-21q-3 -1 -9.5 -15t-14 -30.5t-16 -29.5t-15.5 -13q-8 0 -16 4q0 -3 -3.5 -5t-3.5 -4l2 -6l-9 -6q0 -10 4 -13t9.5 -2t11.5 3.5t9 2.5q5 0 5 -25q0 -39 -22 -114 q-3 -10 -7 -28t-9.5 -39.5t-13.5 -44.5t-19 -43q0 -3 10 -3q51 0 111 -33q70 -39 98 -46q0 -22 8 -52q-38 0 -38 -26q0 -7 1.5 -20t1.5 -20q0 -16 -5 -23l-97 -183q-2 -4 -5.5 -9t-8.5 -11l-19 -22q-23 -27 -22 -31l3 -13q1 -2 -3.5 -3.5l-4.5 -1.5q-3 0 -9 4.5t-10 4.5 q-8 0 -15 -7t-7 -15q0 -9 -13.5 -16.5t-32.5 -13.5t-40 -11.5t-36 -11.5l-27 -11l-35 -5l-5 11l-4 -1t-3 -1q-5 0 -12 8t-8 9l-17 16l1 6q0 3 -3 5t-3 5l-9 5q-4 26 -6 39.5t-2 14.5q0 5 1 14t5 9q1 0 1 4t-1 4t-2 -1q0 16 13 54l-51 -42q-40 -34 -89 -31l-65 -14l-300 -4 q-1 0 -1.5 2t-4.5 1t-10.5 -3t-14.5 -4q-1 1 -3 8l-46 -6q-2 0 -9 -0.5t-18 0.5l-262 17q-13 1 -20.5 1.5t-11.5 0.5q-21 0 -35 -3q-21 3 -50 3q-62 0 -105 -8q-5 -1 -9 -1.5t-8 -0.5q-48 0 -48 67q0 21 8 40q5 11 13.5 16t16 9.5t13 13t5.5 26.5q0 4 -0.5 12t-0.5 12h2 q-1 0 -2.5 10.5l-3.5 24.5t-3.5 27.5t-1.5 20.5q0 37 8 79t19 83q13 46 27 91.5t28 91.5q26 175 120 372q7 2 13 10t13 17t15.5 16t20.5 7q0 15 14 35t30 20q8 0 18.5 -14t20.5 -14q9 0 15.5 11t13.5 11l30 -31q6 -6 0 -32q20 0 30 -11.5t14.5 -27.5t5 -34t0.5 -31 q0 -11 -4.5 -16.5t-10 -9.5t-8.5 -10t0 -18l5 -25q2 -11 3 -19t1 -12q0 -15 -7.5 -37.5t-7.5 -34.5q0 -8 1 -12l-28 -35q-12 -15 -12 -35q0 -7 2 -22t2 -22q0 -6 -6 -15.5t-13.5 -21t-15.5 -25.5t-12 -29q-12 -131 -67 -266q41 5 74 11t57 11q68 17 68 36q11 40 20.5 73 t19.5 58l18 47l9 37q2 7 5.5 7.5t3.5 2.5l2 12q5 28 9 47q1 4 1.5 5t0.5 -1q6 4 9.5 21t6.5 38t7.5 40t12.5 27l8 15q5 8 12 21.5t16 30.5q13 60 36.5 126t58.5 139q-13 1 -13 15q0 7 10.5 16t24 16.5t27 13t20.5 5.5q0 16 14.5 35.5t30.5 19.5q8 0 19 -14t20 -14q8 0 15 11 t14 11l30 -31q1 -1 3 -5l18 -3q21 -3 21 9q0 21 4 21q8 0 8 -22q0 -11 -6.5 -31.5t-7.5 -29.5q20 -32 20 -72q0 -55 -12 -84l-9 -21q-3 -8 -3 -14v-4q0 -7 2.5 -10t2.5 -9q0 -10 -10.5 -25t-8.5 -30l-15 -18q-2 -3 -6.5 -10t-8.5 -15t-7 -15.5t-3 -11.5t3 -13t3 -17 q0 -49 -25 -114t-55 -148v-37q0 -1 -4.5 -14.5t-9 -29.5t-7 -29.5t1.5 -13.5q28 0 61 -10q120 20 120 46q5 26 13 71t28 97l18 47l9 37q0 1 4 3t4 7l3 12q2 8 4 19.5t5 27.5q1 5 1.5 5.5t0.5 -1.5q8 6 7 9.5t-5 6.5t-9 7t-5 13q0 8 10 18l8 15q10 17 22 44.5t28 65.5 q8 8 15 15.5t7 21.5q0 3 4.5 25.5t12 48t16.5 46t17 20.5q7 0 12.5 -1t8.5 -1q7 0 9 16t2 30q0 10 -2 10q-4 0 -11.5 -12t-14.5 -12q-16 0 -16 15q0 12 9.5 20t21.5 8q14 0 21 -6.5t11 -14.5t5 -14.5t2 -6.5q4 0 4 5q0 4 -1 11t-1 10q0 4 3 1zM280 -80q4 0 4 -1t-1 -2t-3 3z M1380 499q-2 5 -4 5q-4 0 -4 -5q0 -2 3 -6t7 -4q7 0 7 5q0 2 -9 5zM1446 588q5 0 5 1q0 3 -2 2.5t-3 -3.5zM1367 761q5 0 2.5 2.5t-2.5 -2.5zM1567 871q0 8 1 8l2 -2q2 -6 -3 -6zM1460 944q4 0 4 1q0 9 -4 -1zM1327 950q6 -3 6.5 -1t-0.5 4.5t-3.5 3t-2.5 -6.5zM1500 971 q-17 0 -17 -8q0 -7 9 -8q8 -2 8 16zM1335 1018q-6 -4 -3 -14q2 -6 5 -6t7 4l-1 3.5t-3 7t-3.5 6t-1.5 -0.5z" glyph-name="FLW217" horiz-adv-x="1677" unicode="Ù"/><glyph d="M1460 683q2 2 2 3q-1 3 -6 13q-4 9 -14 -1q-7 -5 -5 -14q2 -14 11.5 -17t11.5 16zM1362 1039q0 -6 1 -4l3 6t4 8.5t4 4.5q4 0 8 -4l14 21q5 7 18 9.5t13 -7.5q0 -2 -2.5 -6.5t-2.5 -10.5q-7 -7 -1 -13.5t13 -3.5l5.5 11.5t5.5 27.5q0 21 13 20l75 -11q21 -3 21 9 q0 21 4 21q8 0 8 -22q0 -13 -7.5 -34t-7.5 -37q21 0 21 -62q0 -56 -12 -84l-9 -21q-4 -8 -4 -37v-21q-3 -1 -9.5 -15t-14 -30.5t-16 -29.5t-15.5 -13q-8 0 -16 4q0 -3 -3.5 -5t-3.5 -4l2 -6l-9 -6q0 -10 4 -13t9.5 -2t11.5 3.5t9 2.5q5 0 5 -25q0 -39 -22 -114 q-3 -10 -7 -28t-9.5 -39.5t-13.5 -44.5t-19 -43q0 -3 10 -3q51 0 111 -33q70 -39 98 -46q0 -22 8 -52q-38 0 -38 -26q0 -7 1.5 -20t1.5 -20q0 -16 -5 -23l-97 -183q-2 -4 -5.5 -9t-8.5 -11l-19 -22q-23 -27 -22 -31l3 -13q1 -2 -3.5 -3.5l-4.5 -1.5q-3 0 -9 4.5t-10 4.5 q-8 0 -15 -7t-7 -15q0 -9 -13.5 -16.5t-32.5 -13.5t-40 -11.5t-36 -11.5l-27 -11l-35 -5l-5 11l-4 -1t-3 -1q-5 0 -12 8t-8 9l-17 16l1 6q0 3 -3 5t-3 5l-9 5q-4 26 -6 39.5t-2 14.5q0 5 1 14t5 9q1 0 1 4t-1 4t-2 -1q0 16 13 54l-51 -42q-40 -34 -89 -31l-65 -14l-300 -4 q-1 0 -1.5 2t-4.5 1t-10.5 -3t-14.5 -4q-1 1 -3 8l-46 -6q-2 0 -9 -0.5t-18 0.5l-262 17q-13 1 -20.5 1.5t-11.5 0.5q-21 0 -35 -3q-21 3 -50 3q-62 0 -105 -8q-5 -1 -9 -1.5t-8 -0.5q-48 0 -48 67q0 21 8 40q5 11 13.5 16t16 9.5t13 13t5.5 26.5q0 4 -0.5 12t-0.5 12h2 q-1 0 -2.5 10.5l-3.5 24.5t-3.5 27.5t-1.5 20.5q0 37 8 79t19 83q13 46 27 91.5t28 91.5q26 175 120 372q7 2 13 10t13 17t15.5 16t20.5 7q0 15 14 35t30 20q8 0 18.5 -14t20.5 -14q9 0 15.5 11t13.5 11l30 -31q6 -6 0 -32q20 0 30 -11.5t14.5 -27.5t5 -34t0.5 -31 q0 -11 -4.5 -16.5t-10 -9.5t-8.5 -10t0 -18l5 -25q2 -11 3 -19t1 -12q0 -15 -7.5 -37.5t-7.5 -34.5q0 -8 1 -12l-28 -35q-12 -15 -12 -35q0 -7 2 -22t2 -22q0 -6 -6 -15.5t-13.5 -21t-15.5 -25.5t-12 -29q-12 -131 -67 -266q41 5 74 11t57 11q68 17 68 36q11 40 20.5 73 t19.5 58l18 47l9 37q2 7 5.5 7.5t3.5 2.5l2 12q5 28 9 47q1 4 1.5 5t0.5 -1q6 4 9.5 21t6.5 38t7.5 40t12.5 27l8 15q5 8 12 21.5t16 30.5q13 60 36.5 126t58.5 139q-13 1 -13 15q0 7 10.5 16t24 16.5t27 13t20.5 5.5q0 16 14.5 35.5t30.5 19.5q8 0 19 -14t20 -14q8 0 15 11 t14 11l30 -31q1 -1 3 -5l18 -3q21 -3 21 9q0 21 4 21q8 0 8 -22q0 -11 -6.5 -31.5t-7.5 -29.5q20 -32 20 -72q0 -55 -12 -84l-9 -21q-3 -8 -3 -14v-4q0 -7 2.5 -10t2.5 -9q0 -10 -10.5 -25t-8.5 -30l-15 -18q-2 -3 -6.5 -10t-8.5 -15t-7 -15.5t-3 -11.5t3 -13t3 -17 q0 -49 -25 -114t-55 -148v-37q0 -1 -4.5 -14.5t-9 -29.5t-7 -29.5t1.5 -13.5q28 0 61 -10q120 20 120 46q5 26 13 71t28 97l18 47l9 37q0 1 4 3t4 7l3 12q2 8 4 19.5t5 27.5q1 5 1.5 5.5t0.5 -1.5q8 6 7 9.5t-5 6.5t-9 7t-5 13q0 8 10 18l8 15q10 17 22 44.5t28 65.5 q8 8 15 15.5t7 21.5q0 3 4.5 25.5t12 48t16.5 46t17 20.5q7 0 12.5 -1t8.5 -1q7 0 9 16t2 30q0 10 -2 10q-4 0 -11.5 -12t-14.5 -12q-16 0 -16 15q0 12 9.5 20t21.5 8q14 0 21 -6.5t11 -14.5t5 -14.5t2 -6.5q4 0 4 5q0 4 -1 11t-1 10q0 4 3 1zM280 -80q4 0 4 -1t-1 -2t-3 3z M1380 499q-2 5 -4 5q-4 0 -4 -5q0 -2 3 -6t7 -4q7 0 7 5q0 2 -9 5zM1446 588q5 0 5 1q0 3 -2 2.5t-3 -3.5zM1367 761q5 0 2.5 2.5t-2.5 -2.5zM1567 871q0 8 1 8l2 -2q2 -6 -3 -6zM1460 944q4 0 4 1q0 9 -4 -1zM1327 950q6 -3 6.5 -1t-0.5 4.5t-3.5 3t-2.5 -6.5zM1500 971 q-17 0 -17 -8q0 -7 9 -8q8 -2 8 16zM1335 1018q-6 -4 -3 -14q2 -6 5 -6t7 4l-1 3.5t-3 7t-3.5 6t-1.5 -0.5z" glyph-name="FLW217" horiz-adv-x="1677" unicode="Щ"/><glyph d="M975 290q4 7 3 7q-7 0 -11 -7q0 -1 1 -1q4 0 7 1zM276 833h-230q-26 0 -26 23q0 60 34 85q5 4 20 6.5t15 6.5l-2 6l16 15q0 19 5 24q-5 0 -5 10q42 59 160 71q6 0 33 2t60.5 4t66 5t47.5 6q56 12 73 12q37 0 72 -12q9 4 22 4q38 0 73 -56l10 -7l8 -10l3 -10q2 -9 7.5 -31 t5.5 -36q0 -86 -61 -195l277 42q15 2 32.5 -7.5t32.5 -24.5t25 -32t10 -30q0 -40 -64 -71l-18 -29l7 -5q1 -1 1 -5q-2 -6 -8 -11l16 -21l3 -16q1 -4 5 -19.5t9 -34t9 -37t4 -28.5t-1 -22t-5 -12t-16 -10.5t-22 -23.5t-14.5 -23.5t4.5 -10.5q11 0 36 22l16 6 q-14 -5 -18 -13.5t-6 -17.5t-6 -17.5t-17 -14.5q-21 -9 -29 -19.5t-11 -22.5t-4.5 -25t-10.5 -27q18 2 18 -10t-16 -35.5t-36 -47.5t-38.5 -43.5t-23.5 -24.5q-85 -76 -177 -76q-18 0 -44 9.5t-44 9.5q-11 0 -32 -1t-32 -1q-32 16 -52 57q-13 30 -20.5 45.5t-12 21.5t-7.5 6 t-8 -2q-15 -6 -31 -19t-31 -25q-89 -66 -176 -66q-18 0 -34 3q0 4 -0.5 11t-0.5 11q0 116 72 326q20 58 49 146.5t67 206.5l3 11l-8 5l26 66q-24 -3 -35 15.5t-20 37.5zM846 117q-14 -11 -11.5 -16t10.5 -5t17 5t9 16q0 5 -9 5q-6 0 -16 -5zM583 489q-14 -64 -21 -115.5 t-7 -89.5q0 -10 1 -29.5t4 -39t7 -33.5t10 -14q14 0 38 31t47 68.5t40 68.5t17 32q17 23 37 52.5t25 52.5l5 21q3 14 11.5 33t19.5 41l5 10l-4 1t-3 1q-4 0 -10.5 -3.5t-12.5 -3.5q-37 -45 -124 -48q-37 -1 -57.5 -6t-27.5 -30zM1004 421l-7.5 -7.5t1.5 1t4.5 4t1.5 2.5z" glyph-name="FLW218" horiz-adv-x="1080" unicode="Ú"/><glyph d="M975 290q4 7 3 7q-7 0 -11 -7q0 -1 1 -1q4 0 7 1zM276 833h-230q-26 0 -26 23q0 60 34 85q5 4 20 6.5t15 6.5l-2 6l16 15q0 19 5 24q-5 0 -5 10q42 59 160 71q6 0 33 2t60.5 4t66 5t47.5 6q56 12 73 12q37 0 72 -12q9 4 22 4q38 0 73 -56l10 -7l8 -10l3 -10q2 -9 7.5 -31 t5.5 -36q0 -86 -61 -195l277 42q15 2 32.5 -7.5t32.5 -24.5t25 -32t10 -30q0 -40 -64 -71l-18 -29l7 -5q1 -1 1 -5q-2 -6 -8 -11l16 -21l3 -16q1 -4 5 -19.5t9 -34t9 -37t4 -28.5t-1 -22t-5 -12t-16 -10.5t-22 -23.5t-14.5 -23.5t4.5 -10.5q11 0 36 22l16 6 q-14 -5 -18 -13.5t-6 -17.5t-6 -17.5t-17 -14.5q-21 -9 -29 -19.5t-11 -22.5t-4.5 -25t-10.5 -27q18 2 18 -10t-16 -35.5t-36 -47.5t-38.5 -43.5t-23.5 -24.5q-85 -76 -177 -76q-18 0 -44 9.5t-44 9.5q-11 0 -32 -1t-32 -1q-32 16 -52 57q-13 30 -20.5 45.5t-12 21.5t-7.5 6 t-8 -2q-15 -6 -31 -19t-31 -25q-89 -66 -176 -66q-18 0 -34 3q0 4 -0.5 11t-0.5 11q0 116 72 326q20 58 49 146.5t67 206.5l3 11l-8 5l26 66q-24 -3 -35 15.5t-20 37.5zM846 117q-14 -11 -11.5 -16t10.5 -5t17 5t9 16q0 5 -9 5q-6 0 -16 -5zM583 489q-14 -64 -21 -115.5 t-7 -89.5q0 -10 1 -29.5t4 -39t7 -33.5t10 -14q14 0 38 31t47 68.5t40 68.5t17 32q17 23 37 52.5t25 52.5l5 21q3 14 11.5 33t19.5 41l5 10l-4 1t-3 1q-4 0 -10.5 -3.5t-12.5 -3.5q-37 -45 -124 -48q-37 -1 -57.5 -6t-27.5 -30zM1004 421l-7.5 -7.5t1.5 1t4.5 4t1.5 2.5z" glyph-name="FLW218" horiz-adv-x="1080" unicode="Ъ"/><glyph d="M873 290q4 7 3 7q-7 0 -11 -7q0 -1 1 -1q4 0 7 1zM873 290q-19 -8 -27 -16t-12 -19t-6.5 -25t-9.5 -34q18 2 18 -10t-16 -35.5t-36 -47.5t-38.5 -43.5t-23.5 -24.5q-85 -76 -177 -76q-18 0 -44 9.5t-44 9.5q-11 0 -32 -1t-32 -1q-32 16 -52 57q-13 30 -20.5 45.5 t-12 21.5t-7.5 6t-8 -2q-15 -6 -31 -19t-31 -25q-89 -66 -176 -66q-18 0 -34 3q0 4 -0.5 11t-0.5 11q0 116 72 326q20 58 49 146.5t67 206.5l3 11l-8 5l29 73q8 21 14 41.5t22 42.5l-2 10q0 2 3 5l6 6q1 1 1.5 2t1.5 2q-3 3 1 11t10 18t11.5 21.5t4.5 23.5q36 56 94.5 91.5 t122.5 35.5q73 0 73 -33q0 -4 -2 -10l25 -16l8 -10q-2 2 -0.5 -7t4 -22t5 -27.5t2.5 -24.5q0 -91 -56 -191l277 42q15 2 32.5 -7.5t32.5 -24.5t25 -32t10 -30q0 -40 -64 -71l-18 -29l7 -5q1 -1 1 -5q-2 -6 -8 -11l16 -21l3 -16q1 -4 5 -19.5t9 -34t9 -37t4 -28.5t-1 -22 t-5 -12t-16 -10.5t-22 -23.5t-14.5 -23.5t4.5 -10.5q11 0 36 22l16 6q-13 -5 -17.5 -14t-7 -18t-6.5 -17.5t-16 -13.5zM744 117q-14 -11 -11.5 -16t10.5 -5t17 5t9 16q0 5 -9 5q-6 0 -16 -5zM481 489q-14 -64 -21 -115.5t-7 -89.5q0 -10 1 -29.5t4 -39t7 -33.5t10 -14 q14 0 38 31t47 68.5t40 68.5t17 32q17 23 37 52.5t25 52.5l5 21q3 14 11.5 33t19.5 41l5 10l-4 1t-3 1q-4 0 -10.5 -3.5t-12.5 -3.5q-37 -45 -124 -48q-37 -1 -57.5 -6t-27.5 -30zM902 421l-7.5 -7.5t1.5 1t4.5 4t1.5 2.5zM1435 799q3 -84 -30 -190q-15 -46 -31.5 -91 t-32.5 -91q-30 -171 -141 -372q-9 -3 -16 -11t-15.5 -16.5t-18.5 -15.5t-23 -7q0 -17 -16.5 -36t-35.5 -19q-10 0 -22.5 14t-23.5 14q-10 0 -18 -11t-16 -11l-36 31q-7 5 1 32q-11 0 -22 6.5t-20 16t-14.5 20.5t-5.5 20q0 8 1.5 18t1.5 23q0 10 14.5 22.5t17.5 12.5 q0 1 -3 12.5t-6 25.5t-5 25.5l-2 11.5q0 16 9 38t9 34q0 4 -2 12l34 35q13 13 13 35q0 7 -2 22t-2 22q0 16 7.5 28.5t23.5 31.5l15 17q7 7 9 14q9 86 51 197q46 123 102 201q68 92 126 92q90 0 125 -213z" glyph-name="FLW219" horiz-adv-x="1456" unicode="Û"/><glyph d="M873 290q4 7 3 7q-7 0 -11 -7q0 -1 1 -1q4 0 7 1zM873 290q-19 -8 -27 -16t-12 -19t-6.5 -25t-9.5 -34q18 2 18 -10t-16 -35.5t-36 -47.5t-38.5 -43.5t-23.5 -24.5q-85 -76 -177 -76q-18 0 -44 9.5t-44 9.5q-11 0 -32 -1t-32 -1q-32 16 -52 57q-13 30 -20.5 45.5 t-12 21.5t-7.5 6t-8 -2q-15 -6 -31 -19t-31 -25q-89 -66 -176 -66q-18 0 -34 3q0 4 -0.5 11t-0.5 11q0 116 72 326q20 58 49 146.5t67 206.5l3 11l-8 5l29 73q8 21 14 41.5t22 42.5l-2 10q0 2 3 5l6 6q1 1 1.5 2t1.5 2q-3 3 1 11t10 18t11.5 21.5t4.5 23.5q36 56 94.5 91.5 t122.5 35.5q73 0 73 -33q0 -4 -2 -10l25 -16l8 -10q-2 2 -0.5 -7t4 -22t5 -27.5t2.5 -24.5q0 -91 -56 -191l277 42q15 2 32.5 -7.5t32.5 -24.5t25 -32t10 -30q0 -40 -64 -71l-18 -29l7 -5q1 -1 1 -5q-2 -6 -8 -11l16 -21l3 -16q1 -4 5 -19.5t9 -34t9 -37t4 -28.5t-1 -22 t-5 -12t-16 -10.5t-22 -23.5t-14.5 -23.5t4.5 -10.5q11 0 36 22l16 6q-13 -5 -17.5 -14t-7 -18t-6.5 -17.5t-16 -13.5zM744 117q-14 -11 -11.5 -16t10.5 -5t17 5t9 16q0 5 -9 5q-6 0 -16 -5zM481 489q-14 -64 -21 -115.5t-7 -89.5q0 -10 1 -29.5t4 -39t7 -33.5t10 -14 q14 0 38 31t47 68.5t40 68.5t17 32q17 23 37 52.5t25 52.5l5 21q3 14 11.5 33t19.5 41l5 10l-4 1t-3 1q-4 0 -10.5 -3.5t-12.5 -3.5q-37 -45 -124 -48q-37 -1 -57.5 -6t-27.5 -30zM902 421l-7.5 -7.5t1.5 1t4.5 4t1.5 2.5zM1435 799q3 -84 -30 -190q-15 -46 -31.5 -91 t-32.5 -91q-30 -171 -141 -372q-9 -3 -16 -11t-15.5 -16.5t-18.5 -15.5t-23 -7q0 -17 -16.5 -36t-35.5 -19q-10 0 -22.5 14t-23.5 14q-10 0 -18 -11t-16 -11l-36 31q-7 5 1 32q-11 0 -22 6.5t-20 16t-14.5 20.5t-5.5 20q0 8 1.5 18t1.5 23q0 10 14.5 22.5t17.5 12.5 q0 1 -3 12.5t-6 25.5t-5 25.5l-2 11.5q0 16 9 38t9 34q0 4 -2 12l34 35q13 13 13 35q0 7 -2 22t-2 22q0 16 7.5 28.5t23.5 31.5l15 17q7 7 9 14q9 86 51 197q46 123 102 201q68 92 126 92q90 0 125 -213z" glyph-name="FLW219" horiz-adv-x="1456" unicode="Ы"/><glyph d="M873 290q4 7 3 7q-7 0 -11 -7q0 -1 1 -1q4 0 7 1zM873 290q-19 -8 -27 -16t-12 -19t-6.5 -25t-9.5 -34q18 2 18 -10t-16 -35.5t-36 -47.5t-38.5 -43.5t-23.5 -24.5q-85 -76 -177 -76q-18 0 -44 9.5t-44 9.5q-11 0 -32 -1t-32 -1q-32 16 -52 57q-13 30 -20.5 45.5 t-12 21.5t-7.5 6t-8 -2q-15 -6 -31 -19t-31 -25q-89 -66 -176 -66q-18 0 -34 3q0 4 -0.5 11t-0.5 11q0 116 72 326q20 58 49 146.5t67 206.5l3 11l-8 5l29 73q8 21 14 41.5t22 42.5l-2 10q0 2 3 5l6 6q1 1 1.5 2t1.5 2q-3 3 1 11t10 18t11.5 21.5t4.5 23.5q36 56 94.5 91.5 t122.5 35.5q73 0 73 -33q0 -4 -2 -10l25 -16l8 -10q-2 2 -0.5 -7t4 -22t5 -27.5t2.5 -24.5q0 -91 -56 -191l277 42q15 2 32.5 -7.5t32.5 -24.5t25 -32t10 -30q0 -40 -64 -71l-18 -29l7 -5q1 -1 1 -5q-2 -6 -8 -11l16 -21l3 -16q1 -4 5 -19.5t9 -34t9 -37t4 -28.5 q0 -19 -6.5 -26t-15.5 -13.5t-19.5 -17t-18.5 -35.5q-3 -10 6 -10q11 0 36 22l16 6q-13 -5 -17.5 -14t-7 -18t-6.5 -17.5t-16 -13.5zM744 117q-14 -11 -11.5 -16t10.5 -5t17 5t9 16q0 5 -9 5q-6 0 -16 -5zM481 489q-14 -64 -21 -115.5t-7 -89.5q0 -10 1 -29.5t4 -39t7 -33.5 t10 -14q14 0 38 31t47 68.5t40 68.5t17 32q17 23 37 52.5t25 52.5l5 21q3 14 11.5 33t19.5 41l5 10l-4 1t-3 1q-4 0 -10.5 -3.5t-12.5 -3.5q-37 -45 -124 -48q-37 -1 -57.5 -6t-27.5 -30zM902 421l-7.5 -7.5t1.5 1t4.5 4t1.5 2.5z" glyph-name="FLW220" horiz-adv-x="978" unicode="Ü"/><glyph d="M873 290q4 7 3 7q-7 0 -11 -7q0 -1 1 -1q4 0 7 1zM873 290q-19 -8 -27 -16t-12 -19t-6.5 -25t-9.5 -34q18 2 18 -10t-16 -35.5t-36 -47.5t-38.5 -43.5t-23.5 -24.5q-85 -76 -177 -76q-18 0 -44 9.5t-44 9.5q-11 0 -32 -1t-32 -1q-32 16 -52 57q-13 30 -20.5 45.5 t-12 21.5t-7.5 6t-8 -2q-15 -6 -31 -19t-31 -25q-89 -66 -176 -66q-18 0 -34 3q0 4 -0.5 11t-0.5 11q0 116 72 326q20 58 49 146.5t67 206.5l3 11l-8 5l29 73q8 21 14 41.5t22 42.5l-2 10q0 2 3 5l6 6q1 1 1.5 2t1.5 2q-3 3 1 11t10 18t11.5 21.5t4.5 23.5q36 56 94.5 91.5 t122.5 35.5q73 0 73 -33q0 -4 -2 -10l25 -16l8 -10q-2 2 -0.5 -7t4 -22t5 -27.5t2.5 -24.5q0 -91 -56 -191l277 42q15 2 32.5 -7.5t32.5 -24.5t25 -32t10 -30q0 -40 -64 -71l-18 -29l7 -5q1 -1 1 -5q-2 -6 -8 -11l16 -21l3 -16q1 -4 5 -19.5t9 -34t9 -37t4 -28.5 q0 -19 -6.5 -26t-15.5 -13.5t-19.5 -17t-18.5 -35.5q-3 -10 6 -10q11 0 36 22l16 6q-13 -5 -17.5 -14t-7 -18t-6.5 -17.5t-16 -13.5zM744 117q-14 -11 -11.5 -16t10.5 -5t17 5t9 16q0 5 -9 5q-6 0 -16 -5zM481 489q-14 -64 -21 -115.5t-7 -89.5q0 -10 1 -29.5t4 -39t7 -33.5 t10 -14q14 0 38 31t47 68.5t40 68.5t17 32q17 23 37 52.5t25 52.5l5 21q3 14 11.5 33t19.5 41l5 10l-4 1t-3 1q-4 0 -10.5 -3.5t-12.5 -3.5q-37 -45 -124 -48q-37 -1 -57.5 -6t-27.5 -30zM902 421l-7.5 -7.5t1.5 1t4.5 4t1.5 2.5z" glyph-name="FLW220" horiz-adv-x="978" unicode="Ь"/><glyph d="M693 945l-21 -25q-62 -32 -89 -138l-199 -16q-5 0 -16.5 9t-25 20t-27 20t-22.5 9q-4 20 14.5 43.5t49 49.5t68 53.5t71.5 56.5l10 10q2 1 14 0t14 -1q6 0 14 -11t16.5 -23.5t16 -23.5t11.5 -11q3 0 4 1q-10 21 1 24.5t30 12.5l11 5l5 11l-1 -8q-1 -4 -1 -13.5t-1 -24.5 q-2 -9 1 -9l5 -10q7 -16 20 -8t13 20q0 5 -8 10.5t-8 9.5q0 -1 7.5 7l7.5 8l-6 21q-25 18 -25 33q0 11 12 19t28.5 12.5t34 6.5t29.5 2q160 0 234 -104q35 -50 50 -118q7 -32 12 -80.5t5 -101.5q0 -23 -2.5 -43.5t-3.5 -27.5q-2 -22 -4.5 -42t-6.5 -37q-30 -135 -100 -252 q-66 -113 -133 -159q-34 -23 -58 -23q9 0 9 -2l-13.5 -7t-30 -16t-31 -17t-15.5 -9q-30 -25 -38 -66q13 -4 10 -9t-13 -11.5t-20 -13.5t-10 -14q0 -1 2 -9l-37 -5q-16 -2 -28 -11t-22.5 -19t-20 -18t-18.5 -8t-26.5 3t-26.5 3q-21 0 -36.5 4t-28 11t-24 17.5t-25.5 22.5 q-11 59 -59 88q-34 20 -104 32q-11 11 -26 11l-10 10q-16 16 -31 16q-11 0 -19.5 -6.5t-13.5 -6.5q-6 0 -9.5 14.5t-5.5 34.5t-2.5 42t-0.5 37v46q0 70 10 100q16 56 67 64l49 7l46 -29q16 -11 33 -20t51 -9q9 0 23 2t29 4.5t29 4.5t23 2q28 0 28 -32l-4 -16q-6 -21 -12 -39 t-11 -32q-6 -17 -7 -16q0 -26 5.5 -40t15 -20.5t22 -7.5t27.5 -1q105 0 162 144q8 19 15 37t15 34l10 5l11 39q-5 11 -50 11h-26q-42 0 -53 -11l-11 -11q-3 -3 -4.5 1t-1.5 5q1 4 1 10l-10 11l0.5 3.5t0.5 2.5q0 5 -6 8q-23 10 -32 1q-1 -7 -5.5 -8.5t-11 0t-14 3.5t-16.5 0 l-5 -21q-2 -9 -6 -2q-4 5 -4 8t2 7.5t4.5 11.5t2.5 20q0 20 -2.5 35t-2.5 4q13 6 12 12.5t-8.5 10.5t-19 5.5t-20.5 -2.5q21 81 135 119q64 21 210 33q4 -1 8.5 15.5t8 37t5.5 38l2 17.5q0 11 -5 11q0 33 -1.5 56.5t-3.5 37.5q-7 37 -22 37q-6 0 -15 -6zM740 108l1 1h-8 l2 -1q1 0 6 -3t-1 3zM573 -2q-11 -4 -13 -8.5t1.5 -9t10 -7.5t13.5 -3t12.5 5t3.5 18q-2 17 -17 17q-6 0 -11 -12z" glyph-name="FLW221" horiz-adv-x="1071" unicode="Ý"/><glyph d="M693 945l-21 -25q-62 -32 -89 -138l-199 -16q-5 0 -16.5 9t-25 20t-27 20t-22.5 9q-4 20 14.5 43.5t49 49.5t68 53.5t71.5 56.5l10 10q2 1 14 0t14 -1q6 0 14 -11t16.5 -23.5t16 -23.5t11.5 -11q3 0 4 1q-10 21 1 24.5t30 12.5l11 5l5 11l-1 -8q-1 -4 -1 -13.5t-1 -24.5 q-2 -9 1 -9l5 -10q7 -16 20 -8t13 20q0 5 -8 10.5t-8 9.5q0 -1 7.5 7l7.5 8l-6 21q-25 18 -25 33q0 11 12 19t28.5 12.5t34 6.5t29.5 2q160 0 234 -104q35 -50 50 -118q7 -32 12 -80.5t5 -101.5q0 -23 -2.5 -43.5t-3.5 -27.5q-2 -22 -4.5 -42t-6.5 -37q-30 -135 -100 -252 q-66 -113 -133 -159q-34 -23 -58 -23q9 0 9 -2l-13.5 -7t-30 -16t-31 -17t-15.5 -9q-30 -25 -38 -66q13 -4 10 -9t-13 -11.5t-20 -13.5t-10 -14q0 -1 2 -9l-37 -5q-16 -2 -28 -11t-22.5 -19t-20 -18t-18.5 -8t-26.5 3t-26.5 3q-21 0 -36.5 4t-28 11t-24 17.5t-25.5 22.5 q-11 59 -59 88q-34 20 -104 32q-11 11 -26 11l-10 10q-16 16 -31 16q-11 0 -19.5 -6.5t-13.5 -6.5q-6 0 -9.5 14.5t-5.5 34.5t-2.5 42t-0.5 37v46q0 70 10 100q16 56 67 64l49 7l46 -29q16 -11 33 -20t51 -9q9 0 23 2t29 4.5t29 4.5t23 2q28 0 28 -32l-4 -16q-6 -21 -12 -39 t-11 -32q-6 -17 -7 -16q0 -26 5.5 -40t15 -20.5t22 -7.5t27.5 -1q105 0 162 144q8 19 15 37t15 34l10 5l11 39q-5 11 -50 11h-26q-42 0 -53 -11l-11 -11q-3 -3 -4.5 1t-1.5 5q1 4 1 10l-10 11l0.5 3.5t0.5 2.5q0 5 -6 8q-23 10 -32 1q-1 -7 -5.5 -8.5t-11 0t-14 3.5t-16.5 0 l-5 -21q-2 -9 -6 -2q-4 5 -4 8t2 7.5t4.5 11.5t2.5 20q0 20 -2.5 35t-2.5 4q13 6 12 12.5t-8.5 10.5t-19 5.5t-20.5 -2.5q21 81 135 119q64 21 210 33q4 -1 8.5 15.5t8 37t5.5 38l2 17.5q0 11 -5 11q0 33 -1.5 56.5t-3.5 37.5q-7 37 -22 37q-6 0 -15 -6zM740 108l1 1h-8 l2 -1q1 0 6 -3t-1 3zM573 -2q-11 -4 -13 -8.5t1.5 -9t10 -7.5t13.5 -3t12.5 5t3.5 18q-2 17 -17 17q-6 0 -11 -12z" glyph-name="FLW221" horiz-adv-x="1071" unicode="Э"/><glyph d="M561 868q3 -101 -42 -227h32q42 0 53 11l11 11q3 3 4 0.5t1.5 -6t0 -7l-0.5 -3.5l10 -11l-1 -7q0 -13 25 -13q41 46 103.5 114t147.5 158l10 10q2 2 14 0.5t14 -1.5t13 8t24.5 15.5t26.5 10.5t18 -7l8 -4l8 4q-11 21 0 24.5t31 12.5l11 5l5 11l7 -1q22 -5 32 -7.5t8 -2.5 l5 -10q7 -16 20 -8t13 20q0 5 -8 10.5t-8 9.5q0 -1 7.5 7l7.5 8l-6 21q-25 18 -25 33q0 11 12 19t28.5 12.5t34 6.5t29.5 2q161 0 234 -106q34 -48 49 -119q16 -73 16 -170v-20q0 -197 -115 -391q-66 -113 -133 -159q-34 -23 -58 -23q9 0 9 -2l-13.5 -7t-30 -16t-31 -17 t-15.5 -9q-30 -25 -38 -66q13 -4 10 -9t-13 -11.5t-20 -13.5t-10 -14q0 -1 2 -9l-37 -5q-16 -2 -28 -11t-22.5 -19t-20 -18t-18.5 -8t-26.5 3t-26.5 3q-21 0 -36.5 4t-28 11t-24 17.5t-25.5 22.5q-11 59 -59 88q-34 20 -104 32q-11 11 -26 11l-10 10q-12 11 -26 23.5 t-25.5 29.5t-19.5 39.5t-8 54.5q0 88 29 177q-32 -5 -58 -8.5t-46 -4.5q-39 -127 -116 -263q-9 -3 -16 -11t-15.5 -16.5t-18.5 -15.5t-23 -7q0 -17 -16.5 -36t-35.5 -19q-10 0 -22.5 14t-23.5 14q-10 0 -18 -11t-16 -11l-36 31q-7 5 1 32q-10 0 -21 6.5t-20 16t-15 20.5 t-6 20q0 7 1.5 17t1.5 24q0 13 5.5 17.5t11 8.5t9.5 9.5t1 19.5l-6 25q-3 12 -3 22q0 22 7.5 41.5t7.5 39.5q0 8 -1 11l34 35q13 13 13 35q0 7 -2 22t-2 22q0 16 7.5 28.5t23.5 31.5l15 17q7 7 9 14q9 86 51 197q46 123 102 201q68 92 126 92q87 0 125 -213zM1234 108l1 1 h-8l2 -1q1 0 6 -3t-1 3zM1130 825q-59 -29 -89 -147l-11 -5q2 -9 -6.5 -15.5t-19.5 -12t-20 -9.5t-9 -8q0 -5 9.5 -15t9.5 -19q-12 -16 -25 -48.5t-26.5 -71t-25.5 -78t-22 -69.5q-25 -78 -22 -141q39 -11 65 -11q105 0 162 144q8 19 15 37t15 34l10 5l37 131q2 9 4 25t5 36 q2 11 6 26t11 34l10 15q1 1 3 15.5t2 24.5q0 9 2.5 23.5t5.5 30t5.5 30t2.5 23.5q0 11 -5 11q0 33 -1.5 56.5t-3.5 37.5q-4 22 -12 33q-11 13 -22.5 1.5t-22 -33t-20 -47.5t-17.5 -43zM1067 -2q-11 -4 -13 -8.5t1.5 -9t10 -7.5t13.5 -3t12.5 5t3.5 18q-2 17 -17 17 q-6 0 -11 -12z" glyph-name="FLW222" horiz-adv-x="1563" unicode="Þ"/><glyph d="M561 868q3 -101 -42 -227h32q42 0 53 11l11 11q3 3 4 0.5t1.5 -6t0 -7l-0.5 -3.5l10 -11l-1 -7q0 -13 25 -13q41 46 103.5 114t147.5 158l10 10q2 2 14 0.5t14 -1.5t13 8t24.5 15.5t26.5 10.5t18 -7l8 -4l8 4q-11 21 0 24.5t31 12.5l11 5l5 11l7 -1q22 -5 32 -7.5t8 -2.5 l5 -10q7 -16 20 -8t13 20q0 5 -8 10.5t-8 9.5q0 -1 7.5 7l7.5 8l-6 21q-25 18 -25 33q0 11 12 19t28.5 12.5t34 6.5t29.5 2q161 0 234 -106q34 -48 49 -119q16 -73 16 -170v-20q0 -197 -115 -391q-66 -113 -133 -159q-34 -23 -58 -23q9 0 9 -2l-13.5 -7t-30 -16t-31 -17 t-15.5 -9q-30 -25 -38 -66q13 -4 10 -9t-13 -11.5t-20 -13.5t-10 -14q0 -1 2 -9l-37 -5q-16 -2 -28 -11t-22.5 -19t-20 -18t-18.5 -8t-26.5 3t-26.5 3q-21 0 -36.5 4t-28 11t-24 17.5t-25.5 22.5q-11 59 -59 88q-34 20 -104 32q-11 11 -26 11l-10 10q-12 11 -26 23.5 t-25.5 29.5t-19.5 39.5t-8 54.5q0 88 29 177q-32 -5 -58 -8.5t-46 -4.5q-39 -127 -116 -263q-9 -3 -16 -11t-15.5 -16.5t-18.5 -15.5t-23 -7q0 -17 -16.5 -36t-35.5 -19q-10 0 -22.5 14t-23.5 14q-10 0 -18 -11t-16 -11l-36 31q-7 5 1 32q-10 0 -21 6.5t-20 16t-15 20.5 t-6 20q0 7 1.5 17t1.5 24q0 13 5.5 17.5t11 8.5t9.5 9.5t1 19.5l-6 25q-3 12 -3 22q0 22 7.5 41.5t7.5 39.5q0 8 -1 11l34 35q13 13 13 35q0 7 -2 22t-2 22q0 16 7.5 28.5t23.5 31.5l15 17q7 7 9 14q9 86 51 197q46 123 102 201q68 92 126 92q87 0 125 -213zM1234 108l1 1 h-8l2 -1q1 0 6 -3t-1 3zM1130 825q-59 -29 -89 -147l-11 -5q2 -9 -6.5 -15.5t-19.5 -12t-20 -9.5t-9 -8q0 -5 9.5 -15t9.5 -19q-12 -16 -25 -48.5t-26.5 -71t-25.5 -78t-22 -69.5q-25 -78 -22 -141q39 -11 65 -11q105 0 162 144q8 19 15 37t15 34l10 5l37 131q2 9 4 25t5 36 q2 11 6 26t11 34l10 15q1 1 3 15.5t2 24.5q0 9 2.5 23.5t5.5 30t5.5 30t2.5 23.5q0 11 -5 11q0 33 -1.5 56.5t-3.5 37.5q-4 22 -12 33q-11 13 -22.5 1.5t-22 -33t-20 -47.5t-17.5 -43zM1067 -2q-11 -4 -13 -8.5t1.5 -9t10 -7.5t13.5 -3t12.5 5t3.5 18q-2 17 -17 17 q-6 0 -11 -12z" glyph-name="FLW222" horiz-adv-x="1563" unicode="Ю"/><glyph d="M1307 748l-145 -388q-10 -28 -18 -61t-14 -64q-9 -49 -26 -89t-54 -84q-3 -19 -22.5 -35t-47.5 -31t-62 -29.5t-65 -30.5q1 0 -9.5 -5t-23.5 -11.5t-25 -11.5t-15 -5q-14 0 -23 6.5t-15.5 14t-11 13.5t-9.5 5l-3 15l-6 6l-7 68q-1 15 7 41t10 58l1 26l4 11q5 13 14 32.5 t19 45.5q6 14 10 32.5t-10 18.5q-13 0 -32.5 -11.5t-42.5 -29.5t-48 -39.5t-51 -42.5q-49 -41 -83.5 -69t-54.5 -43q-166 -122 -287 -119q7 10 7 16q0 7 -10 7q-15 0 -75 -29q-11 -3 -21 15t-10 30q0 9 13.5 21t29 25t29 23.5t13.5 16.5t-7 6q5 0 -9.5 -9t-34 -19.5 t-37.5 -19.5t-21 -9q4 0 11 8t12 18t7 18t-4 8q-5 0 -3 2t6.5 5t9 6.5t3.5 6.5l15 11q7 5 43 33.5t79 60.5t80.5 58t47.5 26q10 11 31.5 26t43 30.5t38 30t16.5 24.5q0 8 -11 14l4 11q-10 5 -7.5 16.5t2.5 19.5q0 16 -21 16l-3 21l-9 16q12 10 12 15t5 11h-27 q-12 0 -22.5 -10t-10.5 -22q0 -13 9.5 -17.5t4.5 -18.5l-4 -11q-4 -11 -1 -17l5 -10t1 -5t-12 -1q-14 0 -8.5 10.5t5.5 17.5q0 16 -24 16h-4l-22 5q-12 3 -10 17q1 7 2.5 15t5.5 18l15 38q7 18 7 34q0 12 -9.5 19.5t-6.5 20.5q1 7 7 22t13 29.5t13 26l6 11.5l23 53 q0 -1 -1 0.5l-1 1.5l5 9.5t11 22.5t12.5 26.5t9.5 22.5l7 21q1 4 10 13.5t9 12.5q0 1 -2 1l51 62q86 105 185 140q30 10 54 7l114 -16q8 -1 19 -7.5t22 -6.5q13 0 31.5 13.5t39.5 13.5q64 0 84 -77q10 -42 16 -59.5t32 -17.5q24 0 61 21l29 16q1 9 17 15l15 6q13 5 26.5 12 t26.5 14q32 16 54 16q30 0 51 -16t21 -45q0 -43 -37 -121q-10 -21 -25.5 -50.5t-31.5 -71.5zM840 460l28 301q3 31 3 61q0 91 -35 91q-8 0 -15 -3q14 11 30.5 24.5t16.5 18.5q0 4 -9 4q0 8 5.5 12.5t12.5 8.5t15 9t12 12q-5 1 -19.5 -2.5t-13.5 -3.5q-4 0 -6.5 5t-5.5 11.5 t-6 11.5t-8 5q-9 0 -19.5 -8t-20 -20t-18.5 -25.5t-15 -25.5q-72 -139 -72 -220q0 -23 6 -42l84 -262q1 -6 9 -4q10 2 24.5 14.5t16.5 26.5zM397 397q12 9 13.5 5t-3 -12t-13 -16t-18.5 -8q-4 0 -4 4q0 17 25 27z" glyph-name="FLW223" horiz-adv-x="1414" unicode="ß"/><glyph d="M1307 748l-145 -388q-10 -28 -18 -61t-14 -64q-9 -49 -26 -89t-54 -84q-3 -19 -22.5 -35t-47.5 -31t-62 -29.5t-65 -30.5q1 0 -9.5 -5t-23.5 -11.5t-25 -11.5t-15 -5q-14 0 -23 6.5t-15.5 14t-11 13.5t-9.5 5l-3 15l-6 6l-7 68q-1 15 7 41t10 58l1 26l4 11q5 13 14 32.5 t19 45.5q6 14 10 32.5t-10 18.5q-13 0 -32.5 -11.5t-42.5 -29.5t-48 -39.5t-51 -42.5q-49 -41 -83.5 -69t-54.5 -43q-166 -122 -287 -119q7 10 7 16q0 7 -10 7q-15 0 -75 -29q-11 -3 -21 15t-10 30q0 9 13.5 21t29 25t29 23.5t13.5 16.5t-7 6q5 0 -9.5 -9t-34 -19.5 t-37.5 -19.5t-21 -9q4 0 11 8t12 18t7 18t-4 8q-5 0 -3 2t6.5 5t9 6.5t3.5 6.5l15 11q7 5 43 33.5t79 60.5t80.5 58t47.5 26q10 11 31.5 26t43 30.5t38 30t16.5 24.5q0 8 -11 14l4 11q-10 5 -7.5 16.5t2.5 19.5q0 16 -21 16l-3 21l-9 16q12 10 12 15t5 11h-27 q-12 0 -22.5 -10t-10.5 -22q0 -13 9.5 -17.5t4.5 -18.5l-4 -11q-4 -11 -1 -17l5 -10t1 -5t-12 -1q-14 0 -8.5 10.5t5.5 17.5q0 16 -24 16h-4l-22 5q-12 3 -10 17q1 7 2.5 15t5.5 18l15 38q7 18 7 34q0 12 -9.5 19.5t-6.5 20.5q1 7 7 22t13 29.5t13 26l6 11.5l23 53 q0 -1 -1 0.5l-1 1.5l5 9.5t11 22.5t12.5 26.5t9.5 22.5l7 21q1 4 10 13.5t9 12.5q0 1 -2 1l51 62q86 105 185 140q30 10 54 7l114 -16q8 -1 19 -7.5t22 -6.5q13 0 31.5 13.5t39.5 13.5q64 0 84 -77q10 -42 16 -59.5t32 -17.5q24 0 61 21l29 16q1 9 17 15l15 6q13 5 26.5 12 t26.5 14q32 16 54 16q30 0 51 -16t21 -45q0 -43 -37 -121q-10 -21 -25.5 -50.5t-31.5 -71.5zM840 460l28 301q3 31 3 61q0 91 -35 91q-8 0 -15 -3q14 11 30.5 24.5t16.5 18.5q0 4 -9 4q0 8 5.5 12.5t12.5 8.5t15 9t12 12q-5 1 -19.5 -2.5t-13.5 -3.5q-4 0 -6.5 5t-5.5 11.5 t-6 11.5t-8 5q-9 0 -19.5 -8t-20 -20t-18.5 -25.5t-15 -25.5q-72 -139 -72 -220q0 -23 6 -42l84 -262q1 -6 9 -4q10 2 24.5 14.5t16.5 26.5zM397 397q12 9 13.5 5t-3 -12t-13 -16t-18.5 -8q-4 0 -4 4q0 17 25 27z" glyph-name="FLW223" horiz-adv-x="1414" unicode="Я"/><glyph d="M251 88q0 7 -1 9q-10 -12 -12.5 -14t13.5 5zM528 444q-4 -5 -31.5 -39.5t-64 -81.5t-77 -98t-70.5 -88l2 -7l1 -4t1 -5q0 -9 -10 -16.5t-8 -17.5q1 -13 14 -13q11 0 18 9l10 11q4 4 7 6t9 -1q22 17 49.5 46t60.5 70q31 39 54.5 71.5t39.5 58.5l16 26l11 5q8 4 14.5 22 t14.5 38t19 36t27 16q3 0 8 -8t11 -17.5t11.5 -17.5t8.5 -8q13 -4 30.5 -12t40.5 -20q3 -2 7 -10l8.5 -17l8 -16t5.5 -7v-36q0 -5 2 -17q1 -10 -7 -10l-52 -136q-7 -17 -7 -29q0 -5 7.5 -11t17.5 -13.5t19.5 -16.5t14.5 -20q-37 -4 -65 -26q-10 -8 -22 -22.5t-24.5 -30 t-24.5 -29.5t-21 -21q-26 -19 -63 -21l-5 -21q-8 0 -11.5 2.5t-2.5 2.5q-2 0 -7 -5q1 -1 1 -1.5t1 -1.5q-2 -2 -4 -2q-8 0 -3 5l-19 5q1 0 -3 -3t-7 -3t-8 6.5t-9.5 14.5t-7.5 15t-4 7l-21 5q-11 3 -18.5 16.5t-12 31.5t-8 38t-6.5 36q-3 0 -9.5 -4t-14 -9.5t-13 -10 t-7.5 -4.5l-167 -141q-126 34 -163 214q5 76 83 196q10 14 17.5 29.5t14.5 31.5l20 1l-4 25l26 42l23 -3q-4 7 13 34.5t40.5 59.5t46 59t29.5 33q6 0 17 3.5t24 7t26.5 7t23.5 3.5q9 0 18.5 9.5t18.5 9.5q12 0 28.5 -6.5t27.5 -6.5q4 0 4 -3t4 -3q8 0 19.5 1t19.5 -6l12 -25 l45 -7l5 -10q17 -36 17 -57q0 -39 -67 -69q-10 -5 -21 -10t-23 -11z" glyph-name="FLW224" horiz-adv-x="796" unicode="à"/><glyph d="M251 88q0 7 -1 9q-10 -12 -12.5 -14t13.5 5zM528 444q-4 -5 -31.5 -39.5t-64 -81.5t-77 -98t-70.5 -88l2 -7l1 -4t1 -5q0 -9 -10 -16.5t-8 -17.5q1 -13 14 -13q11 0 18 9l10 11q4 4 7 6t9 -1q22 17 49.5 46t60.5 70q31 39 54.5 71.5t39.5 58.5l16 26l11 5q8 4 14.5 22 t14.5 38t19 36t27 16q3 0 8 -8t11 -17.5t11.5 -17.5t8.5 -8q13 -4 30.5 -12t40.5 -20q3 -2 7 -10l8.5 -17l8 -16t5.5 -7v-36q0 -5 2 -17q1 -10 -7 -10l-52 -136q-7 -17 -7 -29q0 -5 7.5 -11t17.5 -13.5t19.5 -16.5t14.5 -20q-37 -4 -65 -26q-10 -8 -22 -22.5t-24.5 -30 t-24.5 -29.5t-21 -21q-26 -19 -63 -21l-5 -21q-8 0 -11.5 2.5t-2.5 2.5q-2 0 -7 -5q1 -1 1 -1.5t1 -1.5q-2 -2 -4 -2q-8 0 -3 5l-19 5q1 0 -3 -3t-7 -3t-8 6.5t-9.5 14.5t-7.5 15t-4 7l-21 5q-11 3 -18.5 16.5t-12 31.5t-8 38t-6.5 36q-3 0 -9.5 -4t-14 -9.5t-13 -10 t-7.5 -4.5l-167 -141q-126 34 -163 214q5 76 83 196q10 14 17.5 29.5t14.5 31.5l20 1l-4 25l26 42l23 -3q-4 7 13 34.5t40.5 59.5t46 59t29.5 33q6 0 17 3.5t24 7t26.5 7t23.5 3.5q9 0 18.5 9.5t18.5 9.5q12 0 28.5 -6.5t27.5 -6.5q4 0 4 -3t4 -3q8 0 19.5 1t19.5 -6l12 -25 l45 -7l5 -10q17 -36 17 -57q0 -39 -67 -69q-10 -5 -21 -10t-23 -11z" glyph-name="FLW224" horiz-adv-x="796" unicode="а"/><glyph d="M737 995l-35 -213q-27 6 -63 6q-47 0 -107.5 -10t-122 -26t-118.5 -38t-98 -46l117 -29q44 -11 76 -67q7 3 25 11l113 6q15 1 12.5 -11t-2.5 -18q0 1 10 9t13 8q17 0 36 -5.5t36.5 -12t31.5 -13t20 -9.5q37 -17 55 -39.5t18 -46.5q0 -20 -10 -40l-47 -100 q-8 -19 -17.5 -38.5t-19.5 -39.5l-10 -16l-37 -31l-24 -66l-343 -254q-20 -15 -56 -15q-24 0 -24 14q0 1 12 35q5 16 -3.5 22.5t-22.5 6.5l-37 11l-21 15q-4 0 -9.5 12.5t-11.5 27t-14.5 27t-18.5 12.5q-20 0 -20 41q0 11 1.5 32t1.5 32q0 5 -0.5 10t-1.5 10q42 163 125 257 q-36 16 -66.5 50.5t-30.5 71.5q0 16 5.5 24.5t12.5 15.5t12.5 14t5.5 19q0 14 -15 41q20 -6 31 35l-10 7l111 95l7 10q7 12 36 18q6 1 10.5 7.5t8.5 13.5t8 12.5t10 5.5q8 0 23 -4.5t24 -4.5q3 0 11 7.5t16 17.5t14 18.5t6 10.5q0 8 -13 21q8 8 28 8q9 0 27.5 -2t27.5 -2 q10 0 10 4q0 6 -21 23l9 8q-1 -1 10.5 5t27 14t31 15t22.5 7q11 0 12.5 -5t10.5 -5q7 13 14.5 26t21.5 12l42 55q2 2 22 5q13 2 21.5 -5.5t16 -21.5t17 -32t24.5 -36zM293 39q44 33 83 85q6 8 23 32.5t46 65.5l11 16q4 5 7 17t8 25q0 11 4 26t9.5 31t9.5 32.5t4 29.5 t-8 19.5t-8 13.5q-53 -8 -102 -92q-61 -106 -84 -248q-4 -20 -4 -38q0 -11 1 -15zM510 1037q10 -3 8.5 -5t-6 -2.5t-7.5 1t5 6.5zM356 914q6 0 3 -3t-3 3zM303 895q11 -3 10 -5t-5.5 -2.5t-8 1.5t3.5 6z" glyph-name="FLW225" horiz-adv-x="774" unicode="á"/></font>
</defs>
</svg>
